Google Drive Morbius.2022.2160p.UHD.BluRay.TrueHD.7.1.Atmos.HDR.x265-EVO

Discussion in 'BDRip | 4K' started by DDLbase, Jun 10, 2022.

  1. DDLbase

    DDLbase Administrator Staff Member

    [​IMG]

    Rating: 5.1/10 based on 74,299 user ratings

    Genres: Action, Adventure, Horror

    Biochemist Michael Morbius tries to cure himself of a rare blood disease, but he inadvertently infects himself with a form of vampirism instead.

    [​IMG]
    Code:
    General
    Unique ID                   : 3017980177584887039638534294945091095 (0x2453DE9327F8FE609264B4E6FB74E17)
    Complete name               : Morbius.2022.2160p.UHD.BluRay.TrueHD.7.1.Atmos.HDR.x265-EVO.mkv
    Format                      : Matroska
    Format version              : Version 4
    File size                   : 25.2 GiB
    Duration                    : 1 h 44 min
    Overall bit rate mode       : Variable
    Overall bit rate            : 34.6 Mb/s
    Movie name                  : MORBIUS_-_4K_ULTRA_HD.Title1
    Encoded date                : UTC 2022-06-07 14:08:37
    Writing application         : mkvmerge v49.0.0 ('Sick Of Losing Soulmates') 64-bit
    Writing library             : libebml v1.4.0 + libmatroska v1.6.1
    
    Video
    ID                          : 1
    Format                      : HEVC
    Format/Info                 : High Efficiency Video Coding
    Format profile              : Main [email protected]@High
    HDR format                  : SMPTE ST 2086, HDR10 compatible
    Codec ID                    : V_MPEGH/ISO/HEVC
    Duration                    : 1 h 44 min
    Bit rate                    : 29.2 Mb/s
    Width                       : 3 840 pixels
    Height                      : 2 160 pixels
    Display aspect ratio        : 16:9
    Frame rate mode             : Constant
    Frame rate                  : 23.976 (24000/1001) FPS
    Color space                 : YUV
    Chroma subsampling          : 4:2:0 (Type 2)
    Bit depth                   : 10 bits
    Bits/(Pixel*Frame)          : 0.147
    Stream size                 : 21.2 GiB (84%)
    Default                     : Yes
    Forced                      : No
    Color range                 : Limited
    Color primaries             : BT.2020
    Transfer characteristics    : PQ
    Matrix coefficients         : BT.2020 non-constant
    Mastering display color pri : Display P3
    Mastering display luminance : min: 0.0050 cd/m2, max: 4000 cd/m2
    Maximum Content Light Level : 1098 cd/m2
    Maximum Frame-Average Light : 297 cd/m2
    
    Audio #1
    ID                          : 2
    Format                      : MLP FBA 16-ch
    Format/Info                 : Meridian Lossless Packing FBA with 16-channel presentation
    Commercial name             : Dolby TrueHD with Dolby Atmos
    Codec ID                    : A_TRUEHD
    Duration                    : 1 h 44 min
    Bit rate mode               : Variable
    Bit rate                    : 4 697 kb/s
    Maximum bit rate            : 7 740 kb/s
    Channel(s)                  : 8 channels
    Channel layout              : L R C LFE Ls Rs Lb Rb
    Sampling rate               : 48.0 kHz
    Frame rate                  : 1 200.000 FPS (40 SPF)
    Compression mode            : Lossless
    Stream size                 : 3.42 GiB (14%)
    Language                    : English
    Default                     : Yes
    Forced                      : No
    Number of dynamic objects   : 11
    Bed channel count           : 1 channel
    Bed channel configuration   : LFE
    
    Audio #2
    ID                          : 7
    Format                      : AC-3
    Format/Info                 : Audio Coding 3
    Commercial name             : Dolby Digital
    Codec ID                    : A_AC3
    Duration                    : 1 h 44 min
    Bit rate mode               : Constant
    Bit rate                    : 640 kb/s
    Channel(s)                  : 6 channels
    Channel layout              : L R C LFE Ls Rs
    Sampling rate               : 48.0 kHz
    Frame rate                  : 31.250 FPS (1536 SPF)
    Compression mode            : Lossy
    Stream size                 : 477 MiB (2%)
    Language                    : English
    Service kind                : Complete Main
    Default                     : No
    Forced                      : No
    
    Text #1
    ID                          : 3
    Format                      : PGS
    Muxing mode                 : zlib
    Codec ID                    : S_HDMV/PGS
    Codec ID/Info               : Picture based subtitle format used on BDs/HD-DVDs
    Duration                    : 1 h 38 min
    Bit rate                    : 30.0 kb/s
    Count of elements           : 2324
    Stream size                 : 21.3 MiB (0%)
    Language                    : English
    Default                     : No
    Forced                      : No
    
    Text #2
    ID                          : 4
    Format                      : PGS
    Muxing mode                 : zlib
    Codec ID                    : S_HDMV/PGS
    Codec ID/Info               : Picture based subtitle format used on BDs/HD-DVDs
    Duration                    : 1 h 34 min
    Bit rate                    : 26.1 kb/s
    Count of elements           : 1906
    Stream size                 : 17.6 MiB (0%)
    Language                    : English
    Default                     : No
    Forced                      : No
    
    Text #3
    ID                          : 5
    Format                      : PGS
    Muxing mode                 : zlib
    Codec ID                    : S_HDMV/PGS
    Codec ID/Info               : Picture based subtitle format used on BDs/HD-DVDs
    Bit rate                    : 0 b/s
    Count of elements           : 0
    Stream size                 : 0.00 Byte (0%)
    Language                    : English
    Default                     : No
    Forced                      : No
    
    Text #4
    ID                          : 6
    Format                      : PGS
    Muxing mode                 : zlib
    Codec ID                    : S_HDMV/PGS
    Codec ID/Info               : Picture based subtitle format used on BDs/HD-DVDs
    Duration                    : 8 s 717 ms
    Bit rate                    : 46.1 kb/s
    Count of elements           : 4
    Stream size                 : 49.0 KiB (0%)
    Language                    : English
    Default                     : No
    Forced                      : No
    
    Menu
    00:00:00.000                : en:(01)00:00:00:000
    00:05:06.931                : en:(02)00:05:06:931
    00:10:15.823                : en:(03)00:10:15:823
    00:16:57.349                : en:(04)00:16:57:349
    00:21:36.753                : en:(05)00:21:36:753
    00:27:58.385                : en:(06)00:27:58:385
    00:32:58.476                : en:(07)00:32:58:476
    00:38:04.156                : en:(08)00:38:04:156
    00:43:17.761                : en:(09)00:43:17:761
    00:48:58.101                : en:(10)00:48:58:101
    00:55:10.557                : en:(11)00:55:10:557
    01:01:11.876                : en:(12)01:01:11:876
    01:05:28.424                : en:(13)01:05:28:424
    01:13:07.049                : en:(14)01:13:07:049
    01:20:06.384                : en:(15)01:20:06:384
    01:26:32.729                : en:(16)01:26:32:729
    Download - Mirror 1:
    Download - Mirror 2:
     
  2. Loading...


Share This Page