Google Drive Mortal.2020.1080p.AMZN.WEB-DL.DDP5.1.H.264-NTG

Discussion in 'Web-DL / Webrip | 1080p' started by DDLbase, Aug 3, 2020.

  1. DDLbase

    DDLbase Administrator Staff Member

    [​IMG]

    Rating: 5.7/10 based on 476 user ratings

    Genres: Action, Adventure, Fantasy

    Fantasy adventure origin story about a young man discovering he has God-like powers based on ancient Norwegian mythology.

    [​IMG]
    Code:
    General
    Unique ID                   : 324316140714334624316352501159800644662 (0xF3FD044577953BA1C786429B5044A436)
    Complete name               : Mortal.2020.1080p.AMZN.WEB-DL.DDP5.1.H.264-NTG.mkv
    Format                      : Matroska
    Format version              : Version 4
    File size                   : 5.02 GiB
    Duration                    : 1 h 44 min
    Overall bit rate            : 6 885 kb/s
    Encoded date                : UTC 2020-08-03 04:19:03
    Writing application         : mkvmerge v21.0.0 ('Tardigrades Will Inherit The Earth') 64-bit
    Writing library             : libebml v1.3.5 + libmatroska v1.4.8
    
    Video
    ID                          : 1
    Format                      : AVC
    Format/Info                 : Advanced Video Codec
    Format profile              : [email protected]
    Format settings             : CABAC / 4 Ref Frames
    Format settings, CABAC      : Yes
    Format settings, Reference  : 4 frames
    Codec ID                    : V_MPEG4/ISO/AVC
    Duration                    : 1 h 44 min
    Bit rate mode               : Constant
    Bit rate                    : 6 243 kb/s
    Nominal bit rate            : 10 000 kb/s
    Width                       : 1 920 pixels
    Height                      : 1 080 pixels
    Display aspect ratio        : 16:9
    Frame rate mode             : Constant
    Frame rate                  : 24.000 FPS
    Color space                 : YUV
    Chroma subsampling          : 4:2:0
    Bit depth                   : 8 bits
    Scan type                   : Progressive
    Bits/(Pixel*Frame)          : 0.125
    Stream size                 : 4.55 GiB (91%)
    Default                     : Yes
    Forced                      : No
    Color range                 : Limited
    Color primaries             : BT.709
    Transfer characteristics    : BT.709
    Matrix coefficients         : BT.709
    
    Audio
    ID                          : 2
    Format                      : E-AC-3
    Format/Info                 : Enhanced AC-3
    Commercial name             : Dolby Digital Plus
    Codec ID                    : A_EAC3
    Duration                    : 1 h 44 min
    Bit rate mode               : Constant
    Bit rate                    : 640 kb/s
    Channel(s)                  : 6 channels
    Channel layout              : L R C LFE Ls Rs
    Sampling rate               : 48.0 kHz
    Frame rate                  : 31.250 FPS (1536 SPF)
    Compression mode            : Lossy
    Stream size                 : 478 MiB (9%)
    Language                    : Norwegian
    Service kind                : Complete Main
    Default                     : Yes
    Forced                      : No
    
    Text
    ID                          : 3
    Format                      : UTF-8
    Codec ID                    : S_TEXT/UTF8
    Codec ID/Info               : UTF-8 Plain Text
    Duration                    : 1 h 28 min
    Bit rate                    : 10 b/s
    Count of elements           : 175
    Stream size                 : 7.08 KiB (0%)
    Title                       : English for Norwegian parts
    Language                    : English
    Default                     : Yes
    Forced                      : No
    Download - Mirror 1:
    Download - Mirror 2:
     
  2. Loading...


Share This Page