Google Drive Mortal.2020.1080p.BluRay.REMUX.AVC.DTS-HD.MA5.1-iFT

Discussion in 'BD REMUX | 1080p' started by DDLbase, Sep 11, 2020.

  1. DDLbase

    DDLbase Administrator Staff Member

    [​IMG]

    Rating: 5.8/10 based on 2,081 user ratings

    Genres: Action, Adventure, Fantasy

    Fantasy adventure origin story about a young man discovering he has God-like powers based on ancient Norwegian mythology.

    [​IMG]
    Code:
    General
    Unique ID                   : 10121356658263181867034698940073055429 (0x79D4D693541CDD12E6F229E92EF14C5)
    Complete name               : Mortal.2020.1080p.BluRay.REMUX.AVC.DTS-HD.MA5.1-iFT.mkv
    Format                      : Matroska
    Format version              : Version 4
    File size                   : 16.7 GiB
    Duration                    : 1 h 40 min
    Overall bit rate mode       : Variable
    Overall bit rate            : 23.8 Mb/s
    Encoded date                : UTC 2020-08-29 18:30:17
    Writing application         : mkvmerge v49.0.0 ('Sick Of Losing Soulmates') 64-bit
    Writing library             : libebml v1.4.0 + libmatroska v1.6.1
    
    Video
    ID                          : 1
    Format                      : AVC
    Format/Info                 : Advanced Video Codec
    Format profile              : [email protected]
    Format settings             : CABAC / 4 Ref Frames
    Format settings, CABAC      : Yes
    Format settings, Reference  : 4 frames
    Codec ID                    : V_MPEG4/ISO/AVC
    Duration                    : 1 h 40 min
    Bit rate mode               : Variable
    Bit rate                    : 19.2 Mb/s
    Maximum bit rate            : 25.0 Mb/s
    Width                       : 1 920 pixels
    Height                      : 1 080 pixels
    Display aspect ratio        : 16:9
    Frame rate mode             : Variable
    Frame rate                  : 50.000 FPS
    Original frame rate         : 25.000 FPS
    Color space                 : YUV
    Chroma subsampling          : 4:2:0
    Bit depth                   : 8 bits
    Scan type                   : Interlaced
    Scan type, store method     : Separated fields
    Scan order                  : Top Field First
    Bits/(Pixel*Frame)          : 0.185
    Stream size                 : 13.5 GiB (81%)
    Default                     : Yes
    Forced                      : No
    Color range                 : Limited
    Color primaries             : BT.709
    Transfer characteristics    : BT.709
    Matrix coefficients         : BT.709
    
    Audio
    ID                          : 2
    Format                      : DTS XLL
    Format/Info                 : Digital Theater Systems
    Commercial name             : DTS-HD Master Audio
    Codec ID                    : A_DTS
    Duration                    : 1 h 40 min
    Bit rate mode               : Variable
    Bit rate                    : 4 636 kb/s
    Channel(s)                  : 6 channels
    Channel layout              : C L R Ls Rs LFE
    Sampling rate               : 48.0 kHz
    Frame rate                  : 93.750 FPS (512 SPF)
    Bit depth                   : 24 bits
    Compression mode            : Lossless
    Stream size                 : 3.25 GiB (19%)
    Title                       : DTS 5.1
    Language                    : Multiple languages
    Default                     : Yes
    Forced                      : No
    
    Text #1
    ID                          : 3
    Format                      : UTF-8
    Codec ID                    : S_TEXT/UTF8
    Codec ID/Info               : UTF-8 Plain Text
    Duration                    : 1 h 25 min
    Bit rate                    : 11 b/s
    Count of elements           : 175
    Stream size                 : 7.43 KiB (0%)
    Title                       : Forced
    Language                    : English
    Default                     : Yes
    Forced                      : No
    
    Text #2
    ID                          : 4
    Format                      : UTF-8
    Codec ID                    : S_TEXT/UTF8
    Codec ID/Info               : UTF-8 Plain Text
    Duration                    : 1 h 25 min
    Bit rate                    : 30 b/s
    Count of elements           : 527
    Stream size                 : 18.8 KiB (0%)
    Title                       : SDH
    Language                    : English
    Default                     : No
    Forced                      : No
    
    Text #3
    ID                          : 5
    Format                      : PGS
    Muxing mode                 : zlib
    Codec ID                    : S_HDMV/PGS
    Codec ID/Info               : Picture based subtitle format used on BDs/HD-DVDs
    Duration                    : 1 h 31 min
    Bit rate                    : 14.9 kb/s
    Count of elements           : 1130
    Stream size                 : 9.73 MiB (0%)
    Language                    : French
    Default                     : No
    Forced                      : No
    
    Menu
    00:00:00.000                : en:Chapter 01
    00:11:06.360                : en:Chapter 02
    00:27:39.200                : en:Chapter 03
    00:41:14.200                : en:Chapter 04
    00:49:10.280                : en:Chapter 05
    01:06:59.440                : en:Chapter 06
    01:16:53.200                : en:Chapter 07
    01:33:44.320                : en:Chapter 08
    Download - Mirror 1:
    Download - Mirror 2:
     
  2. Loading...


Share This Page