Google Drive Mortal.2020.1080p.WEB-DL.H264.DD5.1-EVO

Discussion in 'Web-DL / Webrip | 1080p' started by DDLbase, Jul 31, 2020.

  1. DDLbase

    DDLbase Administrator Staff Member

    [​IMG]

    Rating: 5.7/10 based on 476 user ratings

    Genres: Action, Adventure, Fantasy

    Fantasy adventure origin story about a young man discovering he has God-like powers based on ancient Norwegian mythology.

    [​IMG]
    Code:
    General
    Unique ID                   : 55282602619616453057571150323585796629 (0x29970ABF20B3F3355CCE6CB38D124A15)
    Complete name               : Mortal.2020.1080p.WEB-DL.H264.DD5.1-EVO.mkv
    Format                      : Matroska
    Format version              : Version 4
    File size                   : 3.38 GiB
    Duration                    : 1 h 39 min
    Overall bit rate            : 4 841 kb/s
    Movie name                  : Mortal.2020.NORDiC.1080p.WEB-DL.H.264-RAPiDCOWS
    Encoded date                : UTC 2020-07-31 00:01:01
    Writing application         : mkvmerge v35.0.0 ('All The Love In The World') 64-bit
    Writing library             : libebml v1.3.9 + libmatroska v1.5.2
    
    Video
    ID                          : 1
    Format                      : AVC
    Format/Info                 : Advanced Video Codec
    Format profile              : [email protected]
    Format settings             : CABAC / 5 Ref Frames
    Format settings, CABAC      : Yes
    Format settings, Reference  : 5 frames
    Codec ID                    : V_MPEG4/ISO/AVC
    Duration                    : 1 h 39 min
    Bit rate                    : 4 455 kb/s
    Width                       : 1 920 pixels
    Height                      : 806 pixels
    Display aspect ratio        : 2.40:1
    Frame rate mode             : Constant
    Frame rate                  : 25.000 FPS
    Color space                 : YUV
    Chroma subsampling          : 4:2:0
    Bit depth                   : 8 bits
    Scan type                   : Progressive
    Bits/(Pixel*Frame)          : 0.115
    Stream size                 : 3.11 GiB (92%)
    Language                    : English
    Default                     : Yes
    Forced                      : No
    Color range                 : Limited
    Color primaries             : BT.709
    Transfer characteristics    : BT.709
    Matrix coefficients         : BT.709
    
    Audio
    ID                          : 2
    Format                      : AC-3
    Format/Info                 : Audio Coding 3
    Commercial name             : Dolby Digital
    Codec ID                    : A_AC3
    Duration                    : 1 h 39 min
    Bit rate mode               : Constant
    Bit rate                    : 384 kb/s
    Channel(s)                  : 6 channels
    Channel layout              : L R C LFE Ls Rs
    Sampling rate               : 48.0 kHz
    Frame rate                  : 31.250 FPS (1536 SPF)
    Compression mode            : Lossy
    Stream size                 : 274 MiB (8%)
    Language                    : Norwegian
    Service kind                : Complete Main
    Default                     : Yes
    Forced                      : No
    
    Text
    ID                          : 3
    Format                      : UTF-8
    Codec ID                    : S_TEXT/UTF8
    Codec ID/Info               : UTF-8 Plain Text
    Duration                    : 1 h 25 min
    Bit rate                    : 11 b/s
    Count of elements           : 175
    Stream size                 : 7.43 KiB (0%)
    Language                    : English
    Default                     : Yes
    Forced                      : Yes
    Download:
     
  2. Loading...


Share This Page