Google Drive Mortal.Kombat.1995.1080p.BluRay.DD5.1.x264-CtrlHD

Discussion in 'BDRip | 720p/1080p' started by DDLbase, May 8, 2020.

  1. DDLbase

    DDLbase Administrator Staff Member

    [​IMG]

    Rating: 5.8/10 based on 99,170 user ratings

    Genres: Action, Adventure, Fantasy, Sci-Fi, Thriller

    Three unknowing martial artists are summoned to a mysterious island to compete in a tournament whose outcome will decide the fate of the world.

    [​IMG]
    Code:
    General
    Unique ID                   : 222389895093570192411249777676568137652 (0xA74EBC5F49CEF4A3A7E0F58E6C368FB4)
    Complete name               : Mortal.Kombat.1995.1080p.BluRay.DD5.1.x264-CtrlHD.mkv
    Format                      : Matroska
    Format version              : Version 2
    File size                   : 11.0 GiB
    Duration                    : 1 h 41 min
    Overall bit rate            : 15.5 Mb/s
    Encoded date                : UTC 2010-04-30 14:41:51
    Writing application         : mkvmerge v3.2.0 ('Beginnings') built on Feb 12 2010 16:46:17
    Writing library             : libebml v0.7.9 + libmatroska v0.8.1
    
    Video
    ID                          : 1
    Format                      : AVC
    Format/Info                 : Advanced Video Codec
    Format profile              : [email protected]
    Format settings             : CABAC / 4 Ref Frames
    Format settings, CABAC      : Yes
    Format settings, Reference  : 4 frames
    Codec ID                    : V_MPEG4/ISO/AVC
    Duration                    : 1 h 41 min
    Bit rate                    : 15.1 Mb/s
    Width                       : 1 916 pixels
    Height                      : 1 080 pixels
    Display aspect ratio        : 16:9
    Frame rate mode             : Constant
    Frame rate                  : 23.976 (23976/1000) FPS
    Color space                 : YUV
    Chroma subsampling          : 4:2:0
    Bit depth                   : 8 bits
    Scan type                   : Progressive
    Bits/(Pixel*Frame)          : 0.304
    Stream size                 : 10.4 GiB (95%)
    Writing library             : x264 core 80 r1376M 3feaec2
    Encoding settings           : cabac=1 / ref=4 / deblock=1:-3:-3 / analyse=0x3:0x133 / me=esa / subme=10 / psy=1 / psy_rd=1.6:0.0 / mixed_ref=1 / me_range=16 / chroma_me=1 / trellis=2 / 8x8dct=1 / cqm=0 / deadzone=21,11 / fast_pskip=0 / chroma_qp_offset=0 / threads=3 / sliced_threads=0 / nr=0 / decimate=1 / mbaff=0 / constrained_intra=0 / bframes=7 / b_pyramid=0 / b_adapt=2 / b_bias=0 / direct=3 / wpredb=1 / wpredp=2 / keyint=250 / keyint_min=25 / scenecut=40 / rc_lookahead=40 / rc=2pass / mbtree=1 / bitrate=15060 / ratetol=1.0 / qcomp=0.60 / qpmin=10 / qpmax=51 / qpstep=4 / cplxblur=20.0 / qblur=0.5 / ip_ratio=1.40 / aq=1:0.60
    Language                    : English
    Default                     : No
    Forced                      : No
    
    Audio
    ID                          : 2
    Format                      : AC-3
    Format/Info                 : Audio Coding 3
    Commercial name             : Dolby Digital
    Codec ID                    : A_AC3
    Duration                    : 1 h 41 min
    Bit rate mode               : Constant
    Bit rate                    : 448 kb/s
    Channel(s)                  : 6 channels
    Channel layout              : L R C LFE Ls Rs
    Sampling rate               : 48.0 kHz
    Frame rate                  : 31.250 FPS (1536 SPF)
    Compression mode            : Lossy
    Stream size                 : 325 MiB (3%)
    Service kind                : Complete Main
    Default                     : Yes
    Forced                      : No
    Download:
     
  2. Loading...


Share This Page