Google Drive Mother.2017.1080p.BluRay.x264-DRONES

Discussion in 'BDRip | 720p/1080p' started by DDLbase, Mar 30, 2021.

  1. DDLbase

    DDLbase Administrator Staff Member

    [​IMG]

    Rating: 6.6/10 based on 193,872 user ratings

    Genres: Drama, Horror, Mystery

    A couple’s relationship is tested when uninvited guests arrive at their home, disrupting their tranquil existence.

    [​IMG]
    Code:
    General
    Unique ID                   : 237419147337340512984299557831357319357 (0xB29D43B7C3EEDAE19601E903541D48BD)
    Complete name               : Mother.2017.1080p.BluRay.x264-DRONES.mkv
    Format                      : Matroska
    Format version              : Version 4
    File size                   : 7.94 GiB
    Duration                    : 2 h 1 min
    Overall bit rate            : 9 381 kb/s
    Encoded date                : UTC 2017-12-07 02:00:55
    Writing application         : mkvmerge v8.3.0 ('Over the Horizon') 64bit
    Writing library             : libebml v1.3.1 + libmatroska v1.4.2
    
    Video
    ID                          : 1
    Format                      : AVC
    Format/Info                 : Advanced Video Codec
    Format profile              : [email protected]
    Format settings             : CABAC / 5 Ref Frames
    Format settings, CABAC      : Yes
    Format settings, Reference  : 5 frames
    Codec ID                    : V_MPEG4/ISO/AVC
    Duration                    : 2 h 1 min
    Bit rate                    : 8 744 kb/s
    Width                       : 1 920 pixels
    Height                      : 808 pixels
    Display aspect ratio        : 2.40:1
    Frame rate mode             : Constant
    Frame rate                  : 23.976 FPS
    Color space                 : YUV
    Chroma subsampling          : 4:2:0
    Bit depth                   : 8 bits
    Scan type                   : Progressive
    Bits/(Pixel*Frame)          : 0.235
    Stream size                 : 7.40 GiB (93%)
    Writing library             : x264 core 152 r2851 ba24899
    Encoding settings           : cabac=1 / ref=5 / deblock=1:0:0 / analyse=0x3:0x133 / me=umh / subme=7 / psy=1 / psy_rd=1.00:0.00 / mixed_ref=1 / me_range=16 / chroma_me=1 / trellis=1 / 8x8dct=1 / cqm=0 / deadzone=21,11 / fast_pskip=0 / chroma_qp_offset=-2 / threads=25 / lookahead_threads=4 / sliced_threads=0 / nr=0 / decimate=1 / interlaced=0 / bluray_compat=0 / constrained_intra=0 / bframes=3 / b_pyramid=2 / b_adapt=1 / b_bias=0 / direct=1 / weightb=1 / open_gop=0 / weightp=2 / keyint=250 / keyint_min=23 / scenecut=40 / intra_refresh=0 / rc_lookahead=40 / rc=2pass / mbtree=1 / bitrate=8744 / ratetol=1.0 / qcomp=0.60 / qpmin=0 / qpmax=69 / qpstep=4 / cplxblur=20.0 / qblur=0.5 / ip_ratio=1.40 / aq=1:1.00
    Language                    : English
    Default                     : Yes
    Forced                      : No
    
    Audio
    ID                          : 2
    Format                      : AC-3
    Format/Info                 : Audio Coding 3
    Commercial name             : Dolby Digital
    Codec ID                    : A_AC3
    Duration                    : 2 h 1 min
    Bit rate mode               : Constant
    Bit rate                    : 640 kb/s
    Channel(s)                  : 6 channels
    Channel layout              : L R C LFE Ls Rs
    Sampling rate               : 48.0 kHz
    Frame rate                  : 31.250 FPS (1536 SPF)
    Compression mode            : Lossy
    Stream size                 : 555 MiB (7%)
    Language                    : English
    Service kind                : Complete Main
    Default                     : Yes
    Forced                      : No
    
    Menu
    00:00:00.000                : en:00:00:00.000
    00:06:22.507                : en:00:06:22.507
    00:10:21.079                : en:00:10:21.079
    00:15:59.500                : en:00:15:59.500
    00:21:37.922                : en:00:21:37.922
    00:24:59.415                : en:00:24:59.415
    00:31:31.056                : en:00:31:31.056
    00:38:29.224                : en:00:38:29.224
    00:44:57.028                : en:00:44:57.028
    00:49:35.764                : en:00:49:35.764
    00:53:43.303                : en:00:53:43.303
    01:02:19.694                : en:01:02:19.694
    01:08:24.809                : en:01:08:24.809
    01:16:52.191                : en:01:16:52.191
    01:20:30.909                : en:01:20:30.909
    01:28:26.885                : en:01:28:26.885
    01:38:08.716                : en:01:38:08.716
    01:45:52.638                : en:01:45:52.638
    01:49:48.624                : en:01:49:48.624
    01:56:21.183                : en:01:56:21.183
    Download - Mirror 1:
    Download - Mirror 2:
     
  2. Loading...


Share This Page