Google Drive Mr.Nice.Guy.1997.1080p.BluRay.x264-GiMCHi

Discussion in 'BDRip | 720p/1080p' started by DDLbase, Dec 22, 2019.

  1. DDLbase

    DDLbase Administrator Staff Member

    [​IMG]
    [​IMG]
    Code:
    General
    Unique ID                   : 87486521658402234048561385310237020167 (0x41D14A8AB8AAE1EF4EAB085F61CCD007)
    Complete name               : Mr.Nice.Guy.1997.1080p.BluRay.x264-GiMCHi.mkv
    Format                      : Matroska
    Format version              : Version 4
    File size                   : 6.55 GiB
    Duration                    : 1 h 37 min
    Overall bit rate            : 9 635 kb/s
    Encoded date                : UTC 2019-12-20 16:35:30
    Writing application         : mkvmerge v41.0.0 ('Smarra') 64-bit
    Writing library             : libebml v1.3.9 + libmatroska v1.5.2
    
    Video
    ID                          : 1
    Format                      : AVC
    Format/Info                 : Advanced Video Codec
    Format profile              : [email protected]
    Format settings             : CABAC / 5 Ref Frames
    Format settings, CABAC      : Yes
    Format settings, ReFrames   : 5 frames
    Codec ID                    : V_MPEG4/ISO/AVC
    Duration                    : 1 h 37 min
    Bit rate                    : 8 123 kb/s
    Width                       : 1 920 pixels
    Height                      : 800 pixels
    Display aspect ratio        : 2.40:1
    Frame rate mode             : Constant
    Frame rate                  : 23.976 (24000/1001) FPS
    Color space                 : YUV
    Chroma subsampling          : 4:2:0
    Bit depth                   : 8 bits
    Scan type                   : Progressive
    Bits/(Pixel*Frame)          : 0.221
    Stream size                 : 5.52 GiB (84%)
    Writing library             : x264 core 158 r2988 7817004
    Encoding settings           : cabac=1 / ref=5 / deblock=1:0:0 / analyse=0x3:0x133 / me=umh / subme=7 / psy=1 / psy_rd=1.00:0.00 / mixed_ref=1 / me_range=16 / chroma_me=1 / trellis=1 / 8x8dct=1 / cqm=0 / deadzone=21,11 / fast_pskip=0 / chroma_qp_offset=-2 / threads=12 / lookahead_threads=2 / sliced_threads=0 / nr=0 / decimate=1 / interlaced=0 / bluray_compat=0 / constrained_intra=0 / bframes=3 / b_pyramid=2 / b_adapt=2 / b_bias=0 / direct=3 / weightb=1 / open_gop=0 / weightp=2 / keyint=240 / keyint_min=23 / scenecut=40 / intra_refresh=0 / rc_lookahead=50 / rc=2pass / mbtree=1 / bitrate=8123 / ratetol=1.0 / qcomp=0.60 / qpmin=0 / qpmax=69 / qpstep=4 / cplxblur=20.0 / qblur=0.5 / ip_ratio=1.40 / aq=1:1.00
    Language                    : English
    Default                     : Yes
    Forced                      : No
    
    Audio
    ID                          : 2
    Format                      : DTS
    Format/Info                 : Digital Theater Systems
    Codec ID                    : A_DTS
    Duration                    : 1 h 37 min
    Bit rate mode               : Constant
    Bit rate                    : 1 509 kb/s
    Channel(s)                  : 6 channels
    Channel layout              : C L R Ls Rs LFE
    Sampling rate               : 48.0 kHz
    Frame rate                  : 93.750 FPS (512 SPF)
    Bit depth                   : 24 bits
    Compression mode            : Lossy
    Stream size                 : 1.03 GiB (16%)
    Title                       : English
    Language                    : English
    Default                     : Yes
    Forced                      : No
    
    Text
    ID                          : 3
    Format                      : UTF-8
    Codec ID                    : S_TEXT/UTF8
    Codec ID/Info               : UTF-8 Plain Text
    Duration                    : 1 h 10 min
    Bit rate                    : 3 b/s
    Count of elements           : 76
    Stream size                 : 1.86 KiB (0%)
    Title                       : Forced
    Language                    : English
    Default                     : Yes
    Forced                      : Yes
    
    Menu
    00:00:00.000                : :Chapter 01
    00:00:40.791                : :Chapter 02
    00:02:24.311                : :Chapter 03
    00:03:31.336                : :Chapter 04
    00:04:36.568                : :Chapter 05
    00:06:43.695                : :Chapter 06
    00:08:02.899                : :Chapter 07
    00:11:54.714                : :Chapter 08
    00:15:53.286                : :Chapter 09
    00:17:24.043                : :Chapter 10
    00:20:31.313                : :Chapter 11
    00:22:07.493                : :Chapter 12
    00:26:02.060                : :Chapter 13
    00:28:56.777                : :Chapter 14
    00:32:11.054                : :Chapter 15
    00:37:13.231                : :Chapter 16
    00:40:48.071                : :Chapter 17
    00:45:58.089                : :Chapter 18
    00:49:20.416                : :Chapter 19
    00:54:41.403                : :Chapter 20
    00:59:13.133                : :Chapter 21
    00:59:49.294                : :Chapter 22
    01:05:24.212                : :Chapter 23
    01:10:25.555                : :Chapter 24
    01:14:18.079                : :Chapter 25
    01:18:44.929                : :Chapter 26
    01:21:49.238                : :Chapter 27
    01:24:43.495                : :Chapter 28
    01:27:42.215                : :Chapter 29
    01:33:00.492                : :Chapter 30
    Download:
     
  2. Loading...


Share This Page