Google Drive Mrs.Harris.Goes.to.Paris.2022.2160p.AMZN.WEB-DL.DDP5.1.HDR.HEVC-CMRG

Discussion in 'Web-DL / Webrip | 4K' started by DDLbase, Aug 4, 2022.

  1. DDLbase

    DDLbase Administrator Staff Member

    [​IMG]

    Rating: 7.3/10 based on 1,466 user ratings

    Genres: Comedy, Drama

    A widowed cleaning lady in 1950s London falls madly in love with a couture Dior dress, and decides that she must have one of her own.

    [​IMG]
    Code:
    General
    Unique ID                   : 147282224093376086455553618104300015162 (0x6ECD8649F0B31F4DCA0A51D39C830E3A)
    Complete name               : Mrs.Harris.Goes.to.Paris.2022.2160p.AMZN.WEB-DL.DDP5.1.HDR.HEVC-CMRG.mkv
    Format                      : Matroska
    Format version              : Version 4
    File size                   : 12.7 GiB
    Duration                    : 1 h 55 min
    Overall bit rate            : 15.6 Mb/s
    Encoded date                : UTC 2022-08-02 02:41:20
    Writing application         : mkvmerge v61.0.0 ('So') 64-bit
    Writing library             : libebml v1.4.2 + libmatroska v1.6.4
    
    Video
    ID                          : 1
    Format                      : HEVC
    Format/Info                 : High Efficiency Video Coding
    Format profile              : Main [email protected]@Main
    HDR format                  : SMPTE ST 2094 App 4, Version 1, HDR10+ Profile B compatible
    Codec ID                    : V_MPEGH/ISO/HEVC
    Duration                    : 1 h 55 min
    Bit rate                    : 15.0 Mb/s
    Width                       : 3 840 pixels
    Height                      : 1 600 pixels
    Display aspect ratio        : 2.40:1
    Frame rate mode             : Constant
    Frame rate                  : 23.976 (24000/1001) FPS
    Color space                 : YUV
    Chroma subsampling          : 4:2:0
    Bit depth                   : 10 bits
    Bits/(Pixel*Frame)          : 0.102
    Stream size                 : 12.2 GiB (96%)
    Language                    : English
    Default                     : Yes
    Forced                      : No
    Color range                 : Limited
    Color primaries             : BT.2020
    Transfer characteristics    : PQ
    Matrix coefficients         : BT.2020 non-constant
    Mastering display color pri : Display P3
    Mastering display luminance : min: 0.0050 cd/m2, max: 1000 cd/m2
    Maximum Content Light Level : 811 cd/m2
    Maximum Frame-Average Light : 117 cd/m2
    
    Audio
    ID                          : 2
    Format                      : E-AC-3
    Format/Info                 : Enhanced AC-3
    Commercial name             : Dolby Digital Plus
    Codec ID                    : A_EAC3
    Duration                    : 1 h 55 min
    Bit rate mode               : Constant
    Bit rate                    : 640 kb/s
    Channel(s)                  : 6 channels
    Channel layout              : L R C LFE Ls Rs
    Sampling rate               : 48.0 kHz
    Frame rate                  : 31.250 FPS (1536 SPF)
    Compression mode            : Lossy
    Stream size                 : 531 MiB (4%)
    Language                    : English
    Service kind                : Complete Main
    Default                     : Yes
    Forced                      : No
    
    Text #1
    ID                          : 3
    Format                      : UTF-8
    Codec ID                    : S_TEXT/UTF8
    Codec ID/Info               : UTF-8 Plain Text
    Duration                    : 1 h 14 min
    Bit rate                    : 7 b/s
    Count of elements           : 156
    Stream size                 : 4.27 KiB (0%)
    Title                       : British Forced
    Language                    : English
    Default                     : Yes
    Forced                      : Yes
    
    Text #2
    ID                          : 4
    Format                      : UTF-8
    Codec ID                    : S_TEXT/UTF8
    Codec ID/Info               : UTF-8 Plain Text
    Duration                    : 1 h 55 min
    Bit rate                    : 54 b/s
    Count of elements           : 1797
    Stream size                 : 46.2 KiB (0%)
    Title                       : British SDH
    Language                    : English
    Default                     : No
    Forced                      : No
    
    Text #3
    ID                          : 5
    Format                      : UTF-8
    Codec ID                    : S_TEXT/UTF8
    Codec ID/Info               : UTF-8 Plain Text
    Duration                    : 1 h 54 min
    Bit rate                    : 47 b/s
    Count of elements           : 1553
    Stream size                 : 40.0 KiB (0%)
    Title                       : British
    Language                    : English
    Default                     : No
    Forced                      : No
    
    Text #4
    ID                          : 6
    Format                      : UTF-8
    Codec ID                    : S_TEXT/UTF8
    Codec ID/Info               : UTF-8 Plain Text
    Duration                    : 1 h 48 min
    Bit rate                    : 47 b/s
    Count of elements           : 1255
    Stream size                 : 37.9 KiB (0%)
    Title                       : Canadian
    Language                    : French
    Default                     : No
    Forced                      : No
    Download - Mirror 1:
    Download - Mirror 2:
     
  2. Loading...

    Similar Threads - Mrs Harris Goes
    1. DDLbase
      Replies:
      0
      Views:
      923
    2. DDLbase
      Replies:
      0
      Views:
      722

Share This Page