Google Drive Mustang.2015.LIMITED.1080p.BluRay.x264-DEPTH

Discussion in 'BDRip | 720p/1080p' started by DDLbase, Apr 21, 2021.

  1. DDLbase

    DDLbase Administrator Staff Member

    [​IMG]

    Rating: 7.6/10 based on 36,377 user ratings

    Genre: Drama

    When five orphan girls are seen innocently playing with boys on a beach, their scandalized conservative guardians confine them while forced marriages are arranged.

    [​IMG]
    Code:
    General
    Unique ID                   : 190536916207636005833067768205332067877 (0x8F5813432945421486CA6ADC77663625)
    Complete name               : Mustang.2015.LIMITED.1080p.BluRay.x264-DEPTH.mkv
    Format                      : Matroska
    Format version              : Version 4
    File size                   : 7.64 GiB
    Duration                    : 1 h 37 min
    Overall bit rate            : 11.3 Mb/s
    Encoded date                : UTC 2016-04-28 03:08:31
    Writing application         : mkvmerge v9.0.1 ('Obstacles') 64bit
    Writing library             : libebml v1.3.3 + libmatroska v1.4.4
    
    Video
    ID                          : 1
    Format                      : AVC
    Format/Info                 : Advanced Video Codec
    Format profile              : [email protected]
    Format settings             : CABAC / 5 Ref Frames
    Format settings, CABAC      : Yes
    Format settings, Reference  : 5 frames
    Codec ID                    : V_MPEG4/ISO/AVC
    Duration                    : 1 h 37 min
    Bit rate                    : 9 772 kb/s
    Width                       : 1 920 pixels
    Height                      : 800 pixels
    Display aspect ratio        : 2.40:1
    Frame rate mode             : Constant
    Frame rate                  : 24.000 FPS
    Color space                 : YUV
    Chroma subsampling          : 4:2:0
    Bit depth                   : 8 bits
    Scan type                   : Progressive
    Bits/(Pixel*Frame)          : 0.265
    Stream size                 : 6.62 GiB (87%)
    Writing library             : x264 core 148 r2665 a01e339
    Encoding settings           : cabac=1 / ref=5 / deblock=1:-2:-2 / analyse=0x3:0x113 / me=umh / subme=8 / psy=1 / psy_rd=1.00:0.00 / mixed_ref=1 / me_range=16 / chroma_me=1 / trellis=1 / 8x8dct=1 / cqm=0 / deadzone=21,11 / fast_pskip=1 / chroma_qp_offset=-2 / threads=8 / lookahead_threads=1 / sliced_threads=0 / nr=0 / decimate=1 / interlaced=0 / bluray_compat=0 / constrained_intra=0 / bframes=3 / b_pyramid=2 / b_adapt=2 / b_bias=0 / direct=3 / weightb=1 / open_gop=0 / weightp=2 / keyint=250 / keyint_min=24 / scenecut=40 / intra_refresh=0 / rc_lookahead=50 / rc=2pass / mbtree=1 / bitrate=9772 / ratetol=1.0 / qcomp=0.60 / qpmin=0 / qpmax=69 / qpstep=4 / cplxblur=20.0 / qblur=0.5 / ip_ratio=1.40 / aq=1:1.00
    Default                     : Yes
    Forced                      : No
    
    Audio
    ID                          : 2
    Format                      : DTS
    Format/Info                 : Digital Theater Systems
    Codec ID                    : A_DTS
    Duration                    : 1 h 37 min
    Bit rate mode               : Constant
    Bit rate                    : 1 509 kb/s
    Channel(s)                  : 6 channels
    Channel layout              : C L R Ls Rs LFE
    Sampling rate               : 48.0 kHz
    Frame rate                  : 93.750 FPS (512 SPF)
    Bit depth                   : 24 bits
    Compression mode            : Lossy
    Stream size                 : 1.02 GiB (13%)
    Language                    : Turkish
    Default                     : Yes
    Forced                      : No
    
    Text
    ID                          : 3
    Format                      : UTF-8
    Codec ID                    : S_TEXT/UTF8
    Codec ID/Info               : UTF-8 Plain Text
    Duration                    : 1 h 30 min
    Bit rate                    : 29 b/s
    Count of elements           : 799
    Stream size                 : 19.4 KiB (0%)
    Language                    : English
    Default                     : Yes
    Forced                      : No
    
    Menu
    00:00:00.000                : en:00:00:00.000
    00:05:29.000                : en:00:05:29.000
    00:10:33.667                : en:00:10:33.667
    00:15:16.000                : en:00:15:16.000
    00:20:54.208                : en:00:20:54.208
    00:30:35.083                : en:00:30:35.083
    00:41:01.375                : en:00:41:01.375
    00:51:52.625                : en:00:51:52.625
    00:59:34.625                : en:00:59:34.625
    01:12:25.083                : en:01:12:25.083
    01:25:12.917                : en:01:25:12.917
    01:32:10.250                : en:01:32:10.250
    Download - Mirror 1:
    Download - Mirror 2:
     
  2. Loading...


Share This Page