Google Drive My.Girl.1991.2160p.WEB-DL.DTS-HD.MA.5.1.HEVC-VD0N

Discussion in 'Web-DL / Webrip | 4K' started by DDLbase, Jul 30, 2022.

  1. DDLbase

    DDLbase Administrator Staff Member

    [​IMG]

    Rating: 6.9/10 based on 80,831 user ratings

    Genres: Comedy, Drama, Family

    A young girl on the threshold of her teen years finds her life turning upside down when she is accompanied by an unlikely friend.

    [​IMG]
    Code:
    General
    Unique ID                   : 309032579403310020886024311107532830621 (0xE87D82854B4825915A5EC40E772F379D)
    Complete name               : My.Girl.1991.2160p.WEB-DL.DTS-HD.MA.5.1.HEVC-VD0N.mkv
    Format                      : Matroska
    Format version              : Version 4
    File size                   : 17.3 GiB
    Duration                    : 1 h 42 min
    Overall bit rate mode       : Variable
    Overall bit rate            : 24.2 Mb/s
    Writing application         : mkvmerge v68.0.0 ('The Curtain') 64-bit
    Writing library             : libebml v1.4.2 + libmatroska v1.6.4
    
    Video
    ID                          : 1
    Format                      : HEVC
    Format/Info                 : High Efficiency Video Coding
    Format profile              : Main [email protected]@High
    Codec ID                    : V_MPEGH/ISO/HEVC
    Duration                    : 1 h 42 min
    Bit rate                    : 20.8 Mb/s
    Width                       : 3 832 pixels
    Height                      : 2 072 pixels
    Display aspect ratio        : 1.85:1
    Frame rate mode             : Constant
    Frame rate                  : 23.976 FPS
    Color space                 : YUV
    Chroma subsampling          : 4:2:0
    Bit depth                   : 10 bits
    Bits/(Pixel*Frame)          : 0.109
    Stream size                 : 14.8 GiB (86%)
    Default                     : Yes
    Forced                      : No
    Color range                 : Limited
    Color primaries             : BT.709
    Transfer characteristics    : BT.709
    Matrix coefficients         : BT.709
    
    Audio #1
    ID                          : 2
    Format                      : DTS XLL
    Format/Info                 : Digital Theater Systems
    Commercial name             : DTS-HD Master Audio
    Codec ID                    : A_DTS
    Duration                    : 1 h 42 min
    Bit rate mode               : Variable
    Bit rate                    : 2 133 kb/s
    Channel(s)                  : 6 channels
    Channel layout              : C L R Ls Rs LFE
    Sampling rate               : 48.0 kHz
    Frame rate                  : 93.750 FPS (512 SPF)
    Bit depth                   : 16 bits
    Compression mode            : Lossless
    Delay relative to video     : 10 ms
    Stream size                 : 1.52 GiB (9%)
    Language                    : English
    Default                     : Yes
    Forced                      : No
    
    Audio #2
    ID                          : 3
    Format                      : AC-3
    Format/Info                 : Audio Coding 3
    Commercial name             : Dolby Digital
    Codec ID                    : A_AC3
    Duration                    : 1 h 42 min
    Bit rate mode               : Constant
    Bit rate                    : 384 kb/s
    Channel(s)                  : 6 channels
    Channel layout              : L R C LFE Ls Rs
    Sampling rate               : 48.0 kHz
    Frame rate                  : 31.250 FPS (1536 SPF)
    Compression mode            : Lossy
    Stream size                 : 281 MiB (2%)
    Language                    : English
    Service kind                : Complete Main
    Default                     : Yes
    Forced                      : No
    
    Audio #3
    ID                          : 4
    Format                      : AC-3
    Format/Info                 : Audio Coding 3
    Commercial name             : Dolby Digital
    Format settings             : Dolby Surround
    Codec ID                    : A_AC3
    Duration                    : 1 h 42 min
    Bit rate mode               : Constant
    Bit rate                    : 192 kb/s
    Channel(s)                  : 2 channels
    Channel layout              : L R
    Sampling rate               : 48.0 kHz
    Frame rate                  : 31.250 FPS (1536 SPF)
    Compression mode            : Lossy
    Delay relative to video     : 21 ms
    Stream size                 : 140 MiB (1%)
    Title                       : Commentary with screenplay writer Laurice Elehwany
    Language                    : English
    Service kind                : Complete Main
    Default                     : No
    Forced                      : No
    
    Text #1
    ID                          : 5
    Format                      : PGS
    Codec ID                    : S_HDMV/PGS
    Codec ID/Info               : Picture based subtitle format used on BDs/HD-DVDs
    Duration                    : 1 h 37 min
    Bit rate                    : 37.6 kb/s
    Count of elements           : 2716
    Stream size                 : 26.2 MiB (0%)
    Title                       : English
    Language                    : English
    Default                     : No
    Forced                      : No
    
    Text #2
    ID                          : 6
    Format                      : PGS
    Codec ID                    : S_HDMV/PGS
    Codec ID/Info               : Picture based subtitle format used on BDs/HD-DVDs
    Duration                    : 1 h 37 min
    Bit rate                    : 19.6 kb/s
    Count of elements           : 2745
    Stream size                 : 13.6 MiB (0%)
    Title                       : Arabic
    Language                    : Arabic
    Default                     : No
    Forced                      : No
    
    Text #3
    ID                          : 7
    Format                      : PGS
    Codec ID                    : S_HDMV/PGS
    Codec ID/Info               : Picture based subtitle format used on BDs/HD-DVDs
    Duration                    : 1 h 37 min
    Bit rate                    : 32.8 kb/s
    Count of elements           : 2723
    Stream size                 : 22.8 MiB (0%)
    Title                       : Bulgarian
    Language                    : Bulgarian
    Default                     : No
    Forced                      : No
    
    Text #4
    ID                          : 8
    Format                      : PGS
    Codec ID                    : S_HDMV/PGS
    Codec ID/Info               : Picture based subtitle format used on BDs/HD-DVDs
    Duration                    : 1 h 37 min
    Bit rate                    : 32.1 kb/s
    Count of elements           : 2725
    Stream size                 : 22.4 MiB (0%)
    Title                       : Czech
    Language                    : Czech
    Default                     : No
    Forced                      : No
    
    Text #5
    ID                          : 9
    Format                      : PGS
    Codec ID                    : S_HDMV/PGS
    Codec ID/Info               : Picture based subtitle format used on BDs/HD-DVDs
    Duration                    : 1 h 37 min
    Bit rate                    : 35.3 kb/s
    Count of elements           : 2723
    Stream size                 : 24.6 MiB (0%)
    Title                       : Danish
    Language                    : Danish
    Default                     : No
    Forced                      : No
    
    Text #6
    ID                          : 10
    Format                      : PGS
    Codec ID                    : S_HDMV/PGS
    Codec ID/Info               : Picture based subtitle format used on BDs/HD-DVDs
    Duration                    : 1 h 37 min
    Bit rate                    : 34.9 kb/s
    Count of elements           : 2635
    Stream size                 : 24.3 MiB (0%)
    Title                       : Finnish
    Language                    : Finnish
    Default                     : No
    Forced                      : No
    
    Text #7
    ID                          : 11
    Format                      : PGS
    Codec ID                    : S_HDMV/PGS
    Codec ID/Info               : Picture based subtitle format used on BDs/HD-DVDs
    Duration                    : 1 h 41 min
    Bit rate                    : 32.6 kb/s
    Count of elements           : 2625
    Stream size                 : 23.6 MiB (0%)
    Title                       : French
    Language                    : French
    Default                     : No
    Forced                      : No
    
    Text #8
    ID                          : 12
    Format                      : PGS
    Codec ID                    : S_HDMV/PGS
    Codec ID/Info               : Picture based subtitle format used on BDs/HD-DVDs
    Duration                    : 1 h 37 min
    Bit rate                    : 40.8 kb/s
    Count of elements           : 2725
    Stream size                 : 28.4 MiB (0%)
    Title                       : German
    Language                    : German
    Default                     : No
    Forced                      : No
    
    Text #9
    ID                          : 13
    Format                      : PGS
    Codec ID                    : S_HDMV/PGS
    Codec ID/Info               : Picture based subtitle format used on BDs/HD-DVDs
    Duration                    : 1 h 37 min
    Bit rate                    : 37.4 kb/s
    Count of elements           : 2709
    Stream size                 : 26.1 MiB (0%)
    Title                       : Greek
    Language                    : Greek
    Default                     : No
    Forced                      : No
    
    Text #10
    ID                          : 14
    Format                      : PGS
    Codec ID                    : S_HDMV/PGS
    Codec ID/Info               : Picture based subtitle format used on BDs/HD-DVDs
    Duration                    : 1 h 37 min
    Bit rate                    : 25.4 kb/s
    Count of elements           : 2725
    Stream size                 : 17.7 MiB (0%)
    Title                       : Hebrew
    Language                    : Hebrew
    Default                     : No
    Forced                      : No
    
    Text #11
    ID                          : 15
    Format                      : PGS
    Codec ID                    : S_HDMV/PGS
    Codec ID/Info               : Picture based subtitle format used on BDs/HD-DVDs
    Duration                    : 1 h 37 min
    Bit rate                    : 27.0 kb/s
    Count of elements           : 2725
    Stream size                 : 18.8 MiB (0%)
    Title                       : Hindi
    Language                    : Hindi
    Default                     : No
    Forced                      : No
    
    Text #12
    ID                          : 16
    Format                      : PGS
    Codec ID                    : S_HDMV/PGS
    Codec ID/Info               : Picture based subtitle format used on BDs/HD-DVDs
    Duration                    : 1 h 37 min
    Bit rate                    : 35.3 kb/s
    Count of elements           : 2747
    Stream size                 : 24.6 MiB (0%)
    Title                       : Hungarian
    Language                    : Hungarian
    Default                     : No
    Forced                      : No
    
    Text #13
    ID                          : 17
    Format                      : PGS
    Codec ID                    : S_HDMV/PGS
    Codec ID/Info               : Picture based subtitle format used on BDs/HD-DVDs
    Duration                    : 1 h 37 min
    Bit rate                    : 33.5 kb/s
    Count of elements           : 2659
    Stream size                 : 23.4 MiB (0%)
    Title                       : Icelandic
    Language                    : Icelandic
    Default                     : No
    Forced                      : No
    
    Text #14
    ID                          : 18
    Format                      : PGS
    Codec ID                    : S_HDMV/PGS
    Codec ID/Info               : Picture based subtitle format used on BDs/HD-DVDs
    Duration                    : 1 h 37 min
    Bit rate                    : 32.3 kb/s
    Count of elements           : 2571
    Stream size                 : 22.5 MiB (0%)
    Title                       : Italian
    Language                    : Italian
    Default                     : No
    Forced                      : No
    
    Text #15
    ID                          : 19
    Format                      : PGS
    Codec ID                    : S_HDMV/PGS
    Codec ID/Info               : Picture based subtitle format used on BDs/HD-DVDs
    Duration                    : 1 h 37 min
    Bit rate                    : 22.0 kb/s
    Count of elements           : 2354
    Stream size                 : 15.3 MiB (0%)
    Title                       : Japanese
    Language                    : Japanese
    Default                     : No
    Forced                      : No
    
    Text #16
    ID                          : 20
    Format                      : PGS
    Codec ID                    : S_HDMV/PGS
    Codec ID/Info               : Picture based subtitle format used on BDs/HD-DVDs
    Duration                    : 1 h 37 min
    Bit rate                    : 33.7 kb/s
    Count of elements           : 2639
    Stream size                 : 23.5 MiB (0%)
    Title                       : Norwegian
    Language                    : Norwegian
    Default                     : No
    Forced                      : No
    
    Text #17
    ID                          : 21
    Format                      : PGS
    Codec ID                    : S_HDMV/PGS
    Codec ID/Info               : Picture based subtitle format used on BDs/HD-DVDs
    Duration                    : 1 h 37 min
    Bit rate                    : 37.7 kb/s
    Count of elements           : 2729
    Stream size                 : 26.3 MiB (0%)
    Title                       : Polish
    Language                    : Polish
    Default                     : No
    Forced                      : No
    
    Text #18
    ID                          : 22
    Format                      : PGS
    Codec ID                    : S_HDMV/PGS
    Codec ID/Info               : Picture based subtitle format used on BDs/HD-DVDs
    Duration                    : 1 h 37 min
    Bit rate                    : 33.6 kb/s
    Count of elements           : 2727
    Stream size                 : 23.5 MiB (0%)
    Title                       : Portuguese (Brazilian)
    Language                    : Portuguese
    Default                     : No
    Forced                      : No
    
    Text #19
    ID                          : 23
    Format                      : PGS
    Codec ID                    : S_HDMV/PGS
    Codec ID/Info               : Picture based subtitle format used on BDs/HD-DVDs
    Duration                    : 1 h 37 min
    Bit rate                    : 34.2 kb/s
    Count of elements           : 2465
    Stream size                 : 23.9 MiB (0%)
    Title                       : Portuguese
    Language                    : Portuguese
    Default                     : No
    Forced                      : No
    
    Text #20
    ID                          : 24
    Format                      : PGS
    Codec ID                    : S_HDMV/PGS
    Codec ID/Info               : Picture based subtitle format used on BDs/HD-DVDs
    Duration                    : 1 h 37 min
    Bit rate                    : 36.2 kb/s
    Count of elements           : 2713
    Stream size                 : 25.2 MiB (0%)
    Title                       : Spanish (Latin American)
    Language                    : Spanish
    Default                     : No
    Forced                      : No
    
    Text #21
    ID                          : 25
    Format                      : PGS
    Codec ID                    : S_HDMV/PGS
    Codec ID/Info               : Picture based subtitle format used on BDs/HD-DVDs
    Duration                    : 1 h 37 min
    Bit rate                    : 30.4 kb/s
    Count of elements           : 2717
    Stream size                 : 21.2 MiB (0%)
    Title                       : Swedish
    Language                    : Swedish
    Default                     : No
    Forced                      : No
    
    Text #22
    ID                          : 26
    Format                      : PGS
    Codec ID                    : S_HDMV/PGS
    Codec ID/Info               : Picture based subtitle format used on BDs/HD-DVDs
    Duration                    : 1 h 37 min
    Bit rate                    : 36.6 kb/s
    Count of elements           : 2707
    Stream size                 : 25.5 MiB (0%)
    Title                       : Turkish
    Language                    : Turkish
    Default                     : No
    Forced                      : No
    
    Text #23
    ID                          : 27
    Format                      : PGS
    Codec ID                    : S_HDMV/PGS
    Codec ID/Info               : Picture based subtitle format used on BDs/HD-DVDs
    Duration                    : 1 h 39 min
    Bit rate                    : 46.7 kb/s
    Count of elements           : 3582
    Stream size                 : 33.1 MiB (0%)
    Title                       : English (Commentary)
    Language                    : English
    Default                     : No
    Forced                      : No
    
    Menu
    00:00:00.000                : en:Start
    00:04:03.901                : en:Embalming His Teacher
    00:05:36.668                : en:Meeting Shelly
    00:09:20.701                : en:Hypochondria Blues
    00:11:39.834                : en:Secret Love
    00:14:43.834                : en:Teasing Vada
    00:17:59.168                : en:Locked In
    00:21:30.535                : en:In Shelly's Camper
    00:23:58.902                : en:Creative Writing Class
    00:29:13.669                : en:Blood Brothers
    00:32:39.336                : en:Make-Up Lesson
    00:37:12.403                : en:Brotherly Advice
    00:40:43.237                : en:Bingo Game
    00:43:34.205                : en:Invitation
    00:49:06.272                : en:Group Meditation
    00:53:06.106                : en:July 4Th Barbecue
    01:00:35.473                : en:The Beehive
    01:02:11.107                : en:The Carnival
    01:06:02.474                : en:Running Away
    01:10:06.241                : en:The Facts of Life
    01:11:33.741                : en:"One for My Baby"
    01:13:45.075                : en:"Ever Kissed Anyone?"
    01:16:31.242                : en:Thomas J.
    01:21:09.076                : en:The Funeral
    01:24:54.576                : en:Heartbreak
    01:30:43.277                : en:Shared Memories
    01:33:54.410                : en:Mrs. Sennett
    01:35:49.244                : en:Vada's Poem
    Download - Mirror 1:
    Download - Mirror 2:
     
  2. Loading...


Share This Page