Google Drive Need.For.Speed.2014.1080p.BluRay.x264-SPARKS

Discussion in 'BDRip | 720p/1080p' started by DDLbase, Jul 30, 2020.

  1. DDLbase

    DDLbase Administrator Staff Member

    [​IMG]

    Rating: 6.4/10 based on 160,667 user ratings

    Genres: Action, Crime, Thriller

    Fresh from prison, a street racer who was framed by a wealthy business associate joins a cross-country race with revenge in mind. His ex-partner, learning of the plan, places a massive bounty on his head as the race begins.

    [​IMG]
    Code:
    General
    Unique ID                   : 188121022613314768219978490932348183997 (0x8D86CA830997AE59A0BDA0882B19E5BD)
    Complete name               : Need.For.Speed.2014.1080p.BluRay.x264-SPARKS.mkv
    Format                      : Matroska
    Format version              : Version 4
    File size                   : 9.84 GiB
    Duration                    : 2 h 10 min
    Overall bit rate            : 10.8 Mb/s
    Encoded date                : UTC 2014-07-12 11:18:47
    Writing application         : mkvmerge v6.2.0 ('Promised Land') built on Apr 28 2013 12:22:01
    Writing library             : libebml v1.3.0 + libmatroska v1.4.0
    
    Video
    ID                          : 1
    Format                      : AVC
    Format/Info                 : Advanced Video Codec
    Format profile              : [email protected]
    Format settings             : CABAC / 5 Ref Frames
    Format settings, CABAC      : Yes
    Format settings, Reference  : 5 frames
    Codec ID                    : V_MPEG4/ISO/AVC
    Duration                    : 2 h 10 min
    Bit rate                    : 9 263 kb/s
    Width                       : 1 920 pixels
    Height                      : 808 pixels
    Display aspect ratio        : 2.40:1
    Frame rate mode             : Constant
    Frame rate                  : 23.976 FPS
    Color space                 : YUV
    Chroma subsampling          : 4:2:0
    Bit depth                   : 8 bits
    Scan type                   : Progressive
    Bits/(Pixel*Frame)          : 0.249
    Stream size                 : 8.26 GiB (84%)
    Writing library             : x264 core 142 r2431 ac76440
    Encoding settings           : cabac=1 / ref=5 / deblock=1:0:0 / analyse=0x3:0x133 / me=umh / subme=7 / psy=1 / psy_rd=1.00:0.00 / mixed_ref=1 / me_range=16 / chroma_me=1 / trellis=1 / 8x8dct=1 / cqm=0 / deadzone=21,11 / fast_pskip=0 / chroma_qp_offset=-2 / threads=18 / lookahead_threads=3 / sliced_threads=0 / nr=0 / decimate=1 / interlaced=0 / bluray_compat=0 / constrained_intra=0 / bframes=3 / b_pyramid=2 / b_adapt=1 / b_bias=0 / direct=1 / weightb=1 / open_gop=0 / weightp=2 / keyint=250 / keyint_min=23 / scenecut=40 / intra_refresh=0 / rc_lookahead=40 / rc=2pass / mbtree=1 / bitrate=9263 / ratetol=1.0 / qcomp=0.60 / qpmin=0 / qpmax=69 / qpstep=4 / cplxblur=20.0 / qblur=0.5 / ip_ratio=1.40 / aq=1:1.00
    Language                    : English
    Default                     : Yes
    Forced                      : No
    
    Audio
    ID                          : 2
    Format                      : DTS
    Format/Info                 : Digital Theater Systems
    Codec ID                    : A_DTS
    Duration                    : 2 h 10 min
    Bit rate mode               : Constant
    Bit rate                    : 1 509 kb/s
    Channel(s)                  : 6 channels
    Channel layout              : C L R Ls Rs LFE
    Sampling rate               : 48.0 kHz
    Frame rate                  : 93.750 FPS (512 SPF)
    Bit depth                   : 24 bits
    Compression mode            : Lossy
    Stream size                 : 1.38 GiB (14%)
    Language                    : English
    Default                     : Yes
    Forced                      : No
    
    Menu
    00:00:00.000                : en:00:00:00.000
    00:03:54.734                : en:00:03:54.734
    00:07:49.761                : en:00:07:49.761
    00:14:28.034                : en:00:14:28.034
    00:20:43.534                : en:00:20:43.534
    00:26:18.160                : en:00:26:18.160
    00:28:45.974                : en:00:28:45.974
    00:37:46.473                : en:00:37:46.473
    00:42:07.608                : en:00:42:07.608
    00:50:33.614                : en:00:50:33.614
    00:56:00.482                : en:00:56:00.482
    01:05:09.864                : en:01:05:09.864
    01:12:09.325                : en:01:12:09.325
    01:18:21.030                : en:01:18:21.030
    01:25:07.144                : en:01:25:07.144
    01:32:55.653                : en:01:32:55.653
    01:36:38.084                : en:01:36:38.084
    01:39:49.442                : en:01:39:49.442
    01:49:47.873                : en:01:49:47.873
    01:55:41.685                : en:01:55:41.685
    02:02:22.752                : en:02:02:22.752
    Download:
     
  2. Loading...


Share This Page