Google Drive One.Child.Nation.2019.1080p.AMZN.WEB-DL.DDP5.1.H.264-KamiKaze

Discussion in 'Web-DL / Webrip | 1080p' started by DDLbase, Nov 10, 2019.

  1. DDLbase

    DDLbase Administrator Staff Member

    [​IMG]
    [​IMG]
    Code:
    General
    Unique ID                   : 259804085373782466206890166937537063588 (0xC374725F7D407A78F66386DC0E69AAA4)
    Complete name               : One.Child.Nation.2019.1080p.AMZN.WEB-DL.DDP5.1.H.264-KamiKaze.mkv
    Format                      : Matroska
    Format version              : Version 4 / Version 2
    File size                   : 5.73 GiB
    Duration                    : 1h 28mn
    Overall bit rate            : 9 282 Kbps
    Encoded date                : UTC 2019-11-08 18:30:41
    Writing application         : mkvmerge v19.0.0 ('Brave Captain') 64-bit
    Writing library             : libebml v1.3.5 + libmatroska v1.4.8
    
    Video
    ID                          : 1
    Format                      : AVC
    Format/Info                 : Advanced Video Codec
    Format profile              : [email protected]
    Format settings, CABAC      : Yes
    Format settings, ReFrames   : 4 frames
    Codec ID                    : V_MPEG4/ISO/AVC
    Duration                    : 1h 28mn
    Bit rate mode               : Constant
    Bit rate                    : 8 637 Kbps
    Nominal bit rate            : 10 000 Kbps
    Width                       : 1 920 pixels
    Height                      : 1 080 pixels
    Display aspect ratio        : 16:9
    Frame rate mode             : Constant
    Frame rate                  : 23.976 (24000/1001) fps
    Color space                 : YUV
    Chroma subsampling          : 4:2:0
    Bit depth                   : 8 bits
    Scan type                   : Progressive
    Bits/(Pixel*Frame)          : 0.174
    Stream size                 : 5.33 GiB (93%)
    Default                     : Yes
    Forced                      : No
    Color range                 : Limited
    Color primaries             : BT.709
    Transfer characteristics    : BT.709
    Matrix coefficients         : BT.709
    
    Audio
    ID                          : 2
    Format                      : E-AC-3
    Format/Info                 : Audio Coding 3
    Format settings, Endianness : Big
    Codec ID                    : A_EAC3
    Duration                    : 1h 28mn
    Bit rate mode               : Constant
    Bit rate                    : 640 Kbps
    Channel(s)                  : 6 channels
    Channel positions           : Front: L C R, Side: L R, LFE
    Sampling rate               : 48.0 KHz
    Frame rate                  : 187.500 fps (256 spf)
    Compression mode            : Lossy
    Stream size                 : 404 MiB (7%)
    Language                    : English
    Default                     : Yes
    Forced                      : No
    
    Text #1
    ID                          : 3
    Format                      : UTF-8
    Codec ID                    : S_TEXT/UTF8
    Codec ID/Info               : UTF-8 Plain Text
    Duration                    : 1h 25mn
    Bit rate                    : 34 bps
    Count of elements           : 755
    Stream size                 : 21.4 KiB (0%)
    Title                       : SDH
    Language                    : English
    Default                     : No
    Forced                      : No
    
    Text #2
    ID                          : 4
    Format                      : UTF-8
    Codec ID                    : S_TEXT/UTF8
    Codec ID/Info               : UTF-8 Plain Text
    Duration                    : 1h 25mn
    Bit rate                    : 73 bps
    Count of elements           : 1118
    Stream size                 : 45.6 KiB (0%)
    Title                       : Español (España)
    Language                    : Spanish
    Default                     : No
    Forced                      : No
    
    Text #3
    ID                          : 5
    Format                      : UTF-8
    Codec ID                    : S_TEXT/UTF8
    Codec ID/Info               : UTF-8 Plain Text
    Duration                    : 1h 25mn
    Bit rate                    : 73 bps
    Count of elements           : 1118
    Stream size                 : 45.6 KiB (0%)
    Title                       : Español (Latinoamérica)
    Language                    : Spanish
    Default                     : No
    Forced                      : No
    
    Text #4
    ID                          : 6
    Format                      : UTF-8
    Codec ID                    : S_TEXT/UTF8
    Codec ID/Info               : UTF-8 Plain Text
    Duration                    : 1h 25mn
    Bit rate                    : 76 bps
    Count of elements           : 1119
    Stream size                 : 47.4 KiB (0%)
    Language                    : French
    Default                     : No
    Forced                      : No
    
    Text #5
    ID                          : 7
    Format                      : UTF-8
    Codec ID                    : S_TEXT/UTF8
    Codec ID/Info               : UTF-8 Plain Text
    Duration                    : 1h 25mn
    Bit rate                    : 74 bps
    Count of elements           : 1121
    Stream size                 : 46.3 KiB (0%)
    Language                    : Indonesian
    Default                     : No
    Forced                      : No
    
    Text #6
    ID                          : 8
    Format                      : UTF-8
    Codec ID                    : S_TEXT/UTF8
    Codec ID/Info               : UTF-8 Plain Text
    Duration                    : 1h 25mn
    Bit rate                    : 72 bps
    Count of elements           : 1121
    Stream size                 : 45.1 KiB (0%)
    Language                    : Italian
    Default                     : No
    Forced                      : No
    
    Text #7
    ID                          : 9
    Format                      : UTF-8
    Codec ID                    : S_TEXT/UTF8
    Codec ID/Info               : UTF-8 Plain Text
    Duration                    : 1h 25mn
    Bit rate                    : 70 bps
    Count of elements           : 1119
    Stream size                 : 43.8 KiB (0%)
    Language                    : Polish
    Default                     : No
    Forced                      : No
    
    Text #8
    ID                          : 10
    Format                      : UTF-8
    Codec ID                    : S_TEXT/UTF8
    Codec ID/Info               : UTF-8 Plain Text
    Duration                    : 1h 25mn
    Bit rate                    : 68 bps
    Count of elements           : 1109
    Stream size                 : 42.4 KiB (0%)
    Title                       : Português
    Language                    : Portuguese
    Default                     : No
    Forced                      : No
    
    Text #9
    ID                          : 11
    Format                      : UTF-8
    Codec ID                    : S_TEXT/UTF8
    Codec ID/Info               : UTF-8 Plain Text
    Duration                    : 1h 25mn
    Bit rate                    : 68 bps
    Count of elements           : 1094
    Stream size                 : 42.7 KiB (0%)
    Language                    : Swedish
    Default                     : No
    Forced                      : No
    
    Text #10
    ID                          : 12
    Format                      : UTF-8
    Codec ID                    : S_TEXT/UTF8
    Codec ID/Info               : UTF-8 Plain Text
    Duration                    : 1h 25mn
    Bit rate                    : 69 bps
    Count of elements           : 1123
    Stream size                 : 43.4 KiB (0%)
    Language                    : Turkish
    Default                     : No
    Forced                      : No
    
    Text #11
    ID                          : 13
    Format                      : UTF-8
    Codec ID                    : S_TEXT/UTF8
    Codec ID/Info               : UTF-8 Plain Text
    Duration                    : 1h 25mn
    Bit rate                    : 116 bps
    Count of elements           : 1128
    Stream size                 : 72.8 KiB (0%)
    Language                    : Russian
    Default                     : No
    Forced                      : No
    
    Text #12
    ID                          : 14
    Format                      : UTF-8
    Codec ID                    : S_TEXT/UTF8
    Codec ID/Info               : UTF-8 Plain Text
    Duration                    : 1h 25mn
    Bit rate                    : 102 bps
    Count of elements           : 1128
    Stream size                 : 64.0 KiB (0%)
    Language                    : Arabic
    Default                     : No
    Forced                      : No
    
    Text #13
    ID                          : 15
    Format                      : UTF-8
    Codec ID                    : S_TEXT/UTF8
    Codec ID/Info               : UTF-8 Plain Text
    Duration                    : 1h 25mn
    Bit rate                    : 185 bps
    Count of elements           : 1130
    Stream size                 : 116 KiB (0%)
    Language                    : Hindi
    Default                     : No
    Forced                      : No
    
    Text #14
    ID                          : 16
    Format                      : UTF-8
    Codec ID                    : S_TEXT/UTF8
    Codec ID/Info               : UTF-8 Plain Text
    Duration                    : 1h 25mn
    Bit rate                    : 236 bps
    Count of elements           : 1128
    Stream size                 : 147 KiB (0%)
    Language                    : Tamil
    Default                     : No
    Forced                      : No
    
    Text #15
    ID                          : 17
    Format                      : UTF-8
    Codec ID                    : S_TEXT/UTF8
    Codec ID/Info               : UTF-8 Plain Text
    Duration                    : 1h 25mn
    Bit rate                    : 196 bps
    Count of elements           : 1128
    Stream size                 : 122 KiB (0%)
    Language                    : Telugu
    Default                     : No
    Forced                      : No
    
    Text #16
    ID                          : 18
    Format                      : UTF-8
    Codec ID                    : S_TEXT/UTF8
    Codec ID/Info               : UTF-8 Plain Text
    Duration                    : 1h 25mn
    Bit rate                    : 174 bps
    Count of elements           : 1128
    Stream size                 : 109 KiB (0%)
    Language                    : Thai
    Default                     : No
    Forced                      : No
    
    Text #17
    ID                          : 19
    Format                      : UTF-8
    Codec ID                    : S_TEXT/UTF8
    Codec ID/Info               : UTF-8 Plain Text
    Duration                    : 1h 25mn
    Bit rate                    : 60 bps
    Count of elements           : 1127
    Stream size                 : 37.4 KiB (0%)
    Title                       : 中文(简体)
    Language                    : Chinese
    Default                     : No
    Forced                      : No
    
    Text #18
    ID                          : 20
    Format                      : UTF-8
    Codec ID                    : S_TEXT/UTF8
    Codec ID/Info               : UTF-8 Plain Text
    Duration                    : 1h 25mn
    Bit rate                    : 60 bps
    Count of elements           : 1127
    Stream size                 : 37.4 KiB (0%)
    Title                       : 中文(繁體)
    Language                    : Chinese
    Default                     : No
    Forced                      : No
    
    Text #19
    ID                          : 21
    Format                      : UTF-8
    Codec ID                    : S_TEXT/UTF8
    Codec ID/Info               : UTF-8 Plain Text
    Duration                    : 1h 25mn
    Bit rate                    : 79 bps
    Count of elements           : 1128
    Stream size                 : 49.8 KiB (0%)
    Language                    : Korean
    Default                     : No
    Forced                      : No
    
    Menu
    00:00:00.000                : en:Ratings
    00:00:11.000                : en:Studio Logo
    00:00:46.000                : en:Acknowledgement
    00:01:18.000                : en:Opening Credits
    00:03:02.000                : en:Title Sequence
    00:03:14.000                : en:Growing up with China's one child policy
    00:09:52.000                : en:Implementing the government's policy with propaganda
    00:17:04.000                : en:Talking about sensitive topics
    00:23:23.000                : en:We were fighting a population war
    00:28:38.000                : en:The power of long term indoctrination
    00:38:37.000                : en:Boys vs. girls
    00:43:52.000                : en:Opportunities for human traffickers
    00:52:00.000                : en:Tracking down sold children
    01:01:21.000                : en:Adoption corruption within the government
    01:09:40.000                : en:Trying to reunite families after a strict policy
    01:18:54.000                : en:The lost twin
    01:22:57.000                : en:A change in China's polocies
    01:25:39.000                : en:Title Sequence
    01:25:44.000                : en:Acknowledgement
    01:25:52.000                : en:End Credits
    Download:
     
  2. Loading...


Share This Page