Google Drive Paranormal.Activity.2007.1080p.BluRay.x264-REFiNED

Discussion in 'BDRip | 720p/1080p' started by DDLbase, Mar 30, 2021.

  1. DDLbase

    DDLbase Administrator Staff Member

    [​IMG]

    Rating: 6.3/10 based on 221,703 user ratings

    Genres: Horror, Mystery, Thriller

    After moving into a suburban home, a couple becomes increasingly disturbed by a nightly demonic presence.

    [​IMG]
    Code:
    General
    Complete name               : Paranormal.Activity.2007.1080p.BluRay.x264-REFiNED.mkv
    Format                      : Matroska
    Format version              : Version 1
    File size                   : 7.95 GiB
    Duration                    : 1 h 26 min
    Overall bit rate            : 13.2 Mb/s
    Writing application         : x264.exe
    Writing library             : mkv2rls v1.0
    
    Video
    ID                          : 1
    Format                      : AVC
    Format/Info                 : Advanced Video Codec
    Format profile              : [email protected]
    Format settings             : CABAC / 4 Ref Frames
    Format settings, CABAC      : Yes
    Format settings, Reference  : 4 frames
    Codec ID                    : V_MPEG4/ISO/AVC
    Duration                    : 1 h 26 min
    Bit rate                    : 11.7 Mb/s
    Width                       : 1 920 pixels
    Height                      : 1 080 pixels
    Display aspect ratio        : 16:9
    Frame rate mode             : Constant
    Frame rate                  : 23.976 (24000/1001) FPS
    Color space                 : YUV
    Chroma subsampling          : 4:2:0
    Bit depth                   : 8 bits
    Scan type                   : Progressive
    Bits/(Pixel*Frame)          : 0.235
    Stream size                 : 6.88 GiB (87%)
    Writing library             : x264 core 80 r1376 3feaec2
    Encoding settings           : cabac=1 / ref=4 / deblock=1:0:0 / analyse=0x3:0x113 / me=umh / subme=7 / psy=1 / psy_rd=1.0:0.2 / mixed_ref=1 / me_range=16 / chroma_me=1 / trellis=1 / 8x8dct=1 / cqm=0 / deadzone=21,11 / fast_pskip=0 / chroma_qp_offset=-3 / threads=12 / sliced_threads=0 / nr=0 / decimate=1 / mbaff=0 / constrained_intra=0 / bframes=3 / b_pyramid=2 / b_adapt=1 / b_bias=0 / direct=1 / wpredb=1 / wpredp=0 / keyint=250 / keyint_min=25 / scenecut=40 / rc_lookahead=40 / rc=2pass / mbtree=1 / bitrate=11673 / ratetol=1.0 / qcomp=0.60 / qpmin=10 / qpmax=51 / qpstep=4 / cplxblur=20.0 / qblur=0.5 / ip_ratio=1.40 / aq=1:1.00
    Language                    : English
    Default                     : Yes
    Forced                      : No
    
    Audio
    ID                          : 2
    Format                      : DTS
    Format/Info                 : Digital Theater Systems
    Codec ID                    : A_DTS
    Duration                    : 1 h 26 min
    Bit rate mode               : Constant
    Bit rate                    : 1 509 kb/s
    Channel(s)                  : 6 channels
    Channel layout              : C L R Ls Rs LFE
    Sampling rate               : 48.0 kHz
    Frame rate                  : 93.750 FPS (512 SPF)
    Bit depth                   : 24 bits
    Compression mode            : Lossy
    Stream size                 : 931 MiB (11%)
    Title                       : English DTS 1509kbps
    Language                    : English
    Default                     : Yes
    Forced                      : No
    
    Text
    ID                          : 3
    Format                      : UTF-8
    Codec ID                    : S_TEXT/UTF8
    Codec ID/Info               : UTF-8 Plain Text
    Title                       : English
    Language                    : English
    Default                     : Yes
    Forced                      : No
    
    Menu
    00:00:00.000                : en:00:00:00.000
    00:08:30.135                : en:00:08:30.135
    00:20:21.679                : en:00:20:21.679
    00:26:30.047                : en:00:26:30.047
    00:30:46.470                : en:00:30:46.470
    00:37:03.304                : en:00:37:03.304
    00:44:04.392                : en:00:44:04.392
    00:50:28.150                : en:00:50:28.150
    00:53:38.173                : en:00:53:38.173
    01:01:44.326                : en:01:01:44.326
    01:09:41.511                : en:01:09:41.511
    01:16:21.285                : en:01:16:21.285
    01:21:05.986                : en:01:21:05.986
    Download - Mirror 1:
    Download - Mirror 1:
     

Share This Page