Google Drive Peter.Pan.and.Wendy.2023.2160p.DSNP.WEB-DL.DDP5.1.Atmos.HDR.DV.HEVC-CMRG

Discussion in 'Web-DL / Webrip | 4K' started by DDLbase, Apr 29, 2023.

  1. DDLbase

    DDLbase Administrator Staff Member

    [​IMG]

    Rating: 3.9/10 based on 2,585 user ratings

    Genres: Action, Adventure, Comedy

    Follow the adventures of a boy who does not want to grow up, and how he recruits three brothers in London, and together they embark on a magical adventure on the enchanted island of Neverland.

    [​IMG]
    Code:
    General
    Unique ID                   : 120378468873220316471186149209592069423 (0x5A900CBECA89F4DF7A6B52EA93707D2F)
    Complete name               : Peter.Pan.and.Wendy.2023.2160p.DSNP.WEB-DL.DDP5.1.Atmos.HDR.DV.HEVC-CMRG.mkv
    Format                      : Matroska
    Format version              : Version 4
    File size                   : 10.3 GiB
    Duration                    : 1 h 43 min
    Overall bit rate            : 14.2 Mb/s
    Writing application         : mkvmerge v75.0.0 ('Goliath') 64-bit
    Writing library             : libebml v1.4.4 + libmatroska v1.7.1
    
    Video
    ID                          : 1
    Format                      : HEVC
    Format/Info                 : High Efficiency Video Coding
    Format profile              : Main 10@L5@High
    HDR format                  : Dolby Vision, Version 1.0, dvhe.08.06, BL+RPU, HDR10 compatible / SMPTE ST 2086, HDR10 compatible
    Codec ID                    : V_MPEGH/ISO/HEVC
    Duration                    : 1 h 43 min
    Bit rate                    : 13.4 Mb/s
    Width                       : 3 840 pixels
    Height                      : 2 160 pixels
    Display aspect ratio        : 16:9
    Frame rate mode             : Constant
    Frame rate                  : 24.000 FPS
    Color space                 : YUV
    Chroma subsampling          : 4:2:0
    Bit depth                   : 10 bits
    Bits/(Pixel*Frame)          : 0.068
    Stream size                 : 9.70 GiB (95%)
    Language                    : English
    Default                     : Yes
    Forced                      : No
    Color range                 : Limited
    Color primaries             : BT.2020
    Transfer characteristics    : PQ
    Matrix coefficients         : BT.2020 non-constant
    Mastering display color pri : BT.2020
    Mastering display luminance : min: 0.0000 cd/m2, max: 1000 cd/m2
    
    Audio
    ID                          : 2
    Format                      : E-AC-3 JOC
    Format/Info                 : Enhanced AC-3 with Joint Object Coding
    Commercial name             : Dolby Digital Plus with Dolby Atmos
    Codec ID                    : A_EAC3
    Duration                    : 1 h 43 min
    Bit rate mode               : Constant
    Bit rate                    : 768 kb/s
    Channel(s)                  : 6 channels
    Channel layout              : L R C LFE Ls Rs
    Sampling rate               : 48.0 kHz
    Frame rate                  : 31.250 FPS (1536 SPF)
    Compression mode            : Lossy
    Stream size                 : 568 MiB (5%)
    Language                    : English
    Service kind                : Complete Main
    Default                     : Yes
    Forced                      : No
    Complexity index            : 16
    Number of dynamic objects   : 15
    Bed channel count           : 1 channel
    Bed channel configuration   : LFE
    
    Text #1
    ID                          : 3
    Format                      : UTF-8
    Codec ID                    : S_TEXT/UTF8
    Codec ID/Info               : UTF-8 Plain Text
    Duration                    : 1 h 41 min
    Bit rate                    : 44 b/s
    Frame rate                  : 0.212 FPS
    Count of elements           : 1295
    Stream size                 : 32.9 KiB (0%)
    Title                       : SDH
    Language                    : English
    Default                     : No
    Forced                      : No
    
    Text #2
    ID                          : 4
    Format                      : UTF-8
    Codec ID                    : S_TEXT/UTF8
    Codec ID/Info               : UTF-8 Plain Text
    Duration                    : 1 h 41 min
    Bit rate                    : 38 b/s
    Frame rate                  : 0.182 FPS
    Count of elements           : 1110
    Stream size                 : 28.9 KiB (0%)
    Language                    : English
    Default                     : No
    Forced                      : No
    
    Text #3
    ID                          : 5
    Format                      : UTF-8
    Codec ID                    : S_TEXT/UTF8
    Codec ID/Info               : UTF-8 Plain Text
    Duration                    : 1 h 42 min
    Bit rate                    : 34 b/s
    Frame rate                  : 0.180 FPS
    Count of elements           : 1107
    Stream size                 : 26.1 KiB (0%)
    Language                    : Czech
    Default                     : No
    Forced                      : No
    
    Text #4
    ID                          : 6
    Format                      : UTF-8
    Codec ID                    : S_TEXT/UTF8
    Codec ID/Info               : UTF-8 Plain Text
    Duration                    : 1 h 42 min
    Bit rate                    : 37 b/s
    Frame rate                  : 0.137 FPS
    Count of elements           : 843
    Stream size                 : 27.8 KiB (0%)
    Language                    : Danish
    Default                     : No
    Forced                      : No
    
    Text #5
    ID                          : 7
    Format                      : UTF-8
    Codec ID                    : S_TEXT/UTF8
    Codec ID/Info               : UTF-8 Plain Text
    Duration                    : 1 h 42 min
    Bit rate                    : 40 b/s
    Frame rate                  : 0.182 FPS
    Count of elements           : 1119
    Stream size                 : 30.6 KiB (0%)
    Language                    : German
    Default                     : No
    Forced                      : No
    
    Text #6
    ID                          : 8
    Format                      : UTF-8
    Codec ID                    : S_TEXT/UTF8
    Codec ID/Info               : UTF-8 Plain Text
    Duration                    : 1 h 42 min
    Bit rate                    : 64 b/s
    Frame rate                  : 0.180 FPS
    Count of elements           : 1105
    Stream size                 : 48.6 KiB (0%)
    Language                    : Greek
    Default                     : No
    Forced                      : No
    
    Text #7
    ID                          : 9
    Format                      : UTF-8
    Codec ID                    : S_TEXT/UTF8
    Codec ID/Info               : UTF-8 Plain Text
    Duration                    : 1 h 42 min
    Bit rate                    : 37 b/s
    Frame rate                  : 0.178 FPS
    Count of elements           : 1094
    Stream size                 : 28.2 KiB (0%)
    Language                    : Spanish
    Default                     : No
    Forced                      : No
    
    Text #8
    ID                          : 10
    Format                      : UTF-8
    Codec ID                    : S_TEXT/UTF8
    Codec ID/Info               : UTF-8 Plain Text
    Duration                    : 1 h 42 min
    Bit rate                    : 38 b/s
    Frame rate                  : 0.180 FPS
    Count of elements           : 1102
    Stream size                 : 28.8 KiB (0%)
    Title                       : Latin American
    Language                    : Spanish
    Default                     : No
    Forced                      : No
    
    Text #9
    ID                          : 11
    Format                      : UTF-8
    Codec ID                    : S_TEXT/UTF8
    Codec ID/Info               : UTF-8 Plain Text
    Duration                    : 1 h 42 min
    Bit rate                    : 34 b/s
    Frame rate                  : 0.175 FPS
    Count of elements           : 1076
    Stream size                 : 26.0 KiB (0%)
    Language                    : Finnish
    Default                     : No
    Forced                      : No
    
    Text #10
    ID                          : 12
    Format                      : UTF-8
    Codec ID                    : S_TEXT/UTF8
    Codec ID/Info               : UTF-8 Plain Text
    Duration                    : 1 h 41 min
    Bit rate                    : 37 b/s
    Frame rate                  : 0.171 FPS
    Count of elements           : 1044
    Stream size                 : 28.1 KiB (0%)
    Language                    : French
    Default                     : No
    Forced                      : No
    
    Text #11
    ID                          : 13
    Format                      : UTF-8
    Codec ID                    : S_TEXT/UTF8
    Codec ID/Info               : UTF-8 Plain Text
    Duration                    : 1 h 42 min
    Bit rate                    : 38 b/s
    Frame rate                  : 0.180 FPS
    Count of elements           : 1104
    Stream size                 : 28.6 KiB (0%)
    Language                    : Hungarian
    Default                     : No
    Forced                      : No
    
    Text #12
    ID                          : 14
    Format                      : UTF-8
    Codec ID                    : S_TEXT/UTF8
    Codec ID/Info               : UTF-8 Plain Text
    Duration                    : 1 h 42 min
    Bit rate                    : 37 b/s
    Frame rate                  : 0.179 FPS
    Count of elements           : 1101
    Stream size                 : 28.3 KiB (0%)
    Language                    : Italian
    Default                     : No
    Forced                      : No
    
    Text #13
    ID                          : 15
    Format                      : UTF-8
    Codec ID                    : S_TEXT/UTF8
    Codec ID/Info               : UTF-8 Plain Text
    Duration                    : 1 h 42 min
    Bit rate                    : 32 b/s
    Frame rate                  : 0.170 FPS
    Count of elements           : 1042
    Stream size                 : 24.3 KiB (0%)
    Language                    : Japanese
    Default                     : No
    Forced                      : No
    
    Text #14
    ID                          : 16
    Format                      : UTF-8
    Codec ID                    : S_TEXT/UTF8
    Codec ID/Info               : UTF-8 Plain Text
    Duration                    : 1 h 42 min
    Bit rate                    : 41 b/s
    Frame rate                  : 0.180 FPS
    Count of elements           : 1107
    Stream size                 : 31.0 KiB (0%)
    Language                    : Korean
    Default                     : No
    Forced                      : No
    
    Text #15
    ID                          : 17
    Format                      : UTF-8
    Codec ID                    : S_TEXT/UTF8
    Codec ID/Info               : UTF-8 Plain Text
    Duration                    : 1 h 42 min
    Bit rate                    : 33 b/s
    Frame rate                  : 0.155 FPS
    Count of elements           : 949
    Stream size                 : 25.3 KiB (0%)
    Language                    : Dutch
    Default                     : No
    Forced                      : No
    
    Text #16
    ID                          : 18
    Format                      : UTF-8
    Codec ID                    : S_TEXT/UTF8
    Codec ID/Info               : UTF-8 Plain Text
    Duration                    : 1 h 25 min
    Bit rate                    : 0 b/s
    Frame rate                  : 0.003 FPS
    Count of elements           : 15
    Stream size                 : 351 Bytes (0%)
    Title                       : Flemish
    Language                    : Dutch
    Default                     : No
    Forced                      : No
    
    Text #17
    ID                          : 19
    Format                      : UTF-8
    Codec ID                    : S_TEXT/UTF8
    Codec ID/Info               : UTF-8 Plain Text
    Duration                    : 1 h 42 min
    Bit rate                    : 34 b/s
    Frame rate                  : 0.180 FPS
    Count of elements           : 1105
    Stream size                 : 26.1 KiB (0%)
    Language                    : Norwegian
    Default                     : No
    Forced                      : No
    
    Text #18
    ID                          : 20
    Format                      : UTF-8
    Codec ID                    : S_TEXT/UTF8
    Codec ID/Info               : UTF-8 Plain Text
    Duration                    : 1 h 42 min
    Bit rate                    : 38 b/s
    Frame rate                  : 0.176 FPS
    Count of elements           : 1080
    Stream size                 : 28.8 KiB (0%)
    Language                    : Polish
    Default                     : No
    Forced                      : No
    
    Text #19
    ID                          : 21
    Format                      : UTF-8
    Codec ID                    : S_TEXT/UTF8
    Codec ID/Info               : UTF-8 Plain Text
    Duration                    : 1 h 42 min
    Bit rate                    : 37 b/s
    Frame rate                  : 0.180 FPS
    Count of elements           : 1104
    Stream size                 : 28.0 KiB (0%)
    Language                    : Portuguese
    Default                     : No
    Forced                      : No
    
    Text #20
    ID                          : 22
    Format                      : UTF-8
    Codec ID                    : S_TEXT/UTF8
    Codec ID/Info               : UTF-8 Plain Text
    Duration                    : 1 h 42 min
    Bit rate                    : 39 b/s
    Frame rate                  : 0.180 FPS
    Count of elements           : 1107
    Stream size                 : 29.4 KiB (0%)
    Title                       : Brazilian
    Language                    : Portuguese
    Default                     : No
    Forced                      : No
    
    Text #21
    ID                          : 23
    Format                      : UTF-8
    Codec ID                    : S_TEXT/UTF8
    Codec ID/Info               : UTF-8 Plain Text
    Duration                    : 1 h 42 min
    Bit rate                    : 37 b/s
    Frame rate                  : 0.178 FPS
    Count of elements           : 1093
    Stream size                 : 28.0 KiB (0%)
    Language                    : Romanian
    Default                     : No
    Forced                      : No
    
    Text #22
    ID                          : 24
    Format                      : UTF-8
    Codec ID                    : S_TEXT/UTF8
    Codec ID/Info               : UTF-8 Plain Text
    Duration                    : 1 h 42 min
    Bit rate                    : 36 b/s
    Frame rate                  : 0.180 FPS
    Count of elements           : 1105
    Stream size                 : 27.3 KiB (0%)
    Language                    : Slovak
    Default                     : No
    Forced                      : No
    
    Text #23
    ID                          : 25
    Format                      : UTF-8
    Codec ID                    : S_TEXT/UTF8
    Codec ID/Info               : UTF-8 Plain Text
    Duration                    : 1 h 42 min
    Bit rate                    : 30 b/s
    Frame rate                  : 0.180 FPS
    Count of elements           : 1103
    Stream size                 : 22.9 KiB (0%)
    Language                    : Swedish
    Default                     : No
    Forced                      : No
    
    Text #24
    ID                          : 26
    Format                      : UTF-8
    Codec ID                    : S_TEXT/UTF8
    Codec ID/Info               : UTF-8 Plain Text
    Duration                    : 1 h 42 min
    Bit rate                    : 37 b/s
    Frame rate                  : 0.180 FPS
    Count of elements           : 1103
    Stream size                 : 27.9 KiB (0%)
    Language                    : Turkish
    Default                     : No
    Forced                      : No
    
    Text #25
    ID                          : 27
    Format                      : UTF-8
    Codec ID                    : S_TEXT/UTF8
    Codec ID/Info               : UTF-8 Plain Text
    Duration                    : 1 h 42 min
    Bit rate                    : 34 b/s
    Frame rate                  : 0.180 FPS
    Count of elements           : 1107
    Stream size                 : 26.1 KiB (0%)
    Title                       : Hong Kong
    Language                    : Chinese
    Default                     : No
    Forced                      : No
    
    Text #26
    ID                          : 28
    Format                      : UTF-8
    Codec ID                    : S_TEXT/UTF8
    Codec ID/Info               : UTF-8 Plain Text
    Duration                    : 1 h 42 min
    Bit rate                    : 35 b/s
    Frame rate                  : 0.181 FPS
    Count of elements           : 1109
    Stream size                 : 26.9 KiB (0%)
    Title                       : Traditional
    Language                    : Chinese
    Default                     : No
    Forced                      : No
    
    Menu
    01:35:22.167                : en:Credits
    Download - Mirror 1:
    Download - Mirror 2:
    Download - Mirror 3:
     
  2. Loading...


Share This Page