Google Drive Playing.by.Heart.1998.1080p.BluRay.x264-FilmHD

Discussion in 'BDRip | 720p/1080p' started by DDLbase, Apr 25, 2021.

  1. DDLbase

    DDLbase Administrator Staff Member

    [​IMG]

    Rating: 7.0/10 based on 18,729 user ratings

    Genres: Comedy, Drama, Romance

    Eleven articulate people work through affairs of the heart in Los Angeles.

    [​IMG]
    Code:
    General
    Complete name               : Playing.by.Heart.1998.1080p.BluRay.x264-FilmHD.mkv
    Format                      : Matroska
    Format version              : Version 2
    File size                   : 7.66 GiB
    Duration                    : 2 h 0 min
    Overall bit rate            : 9 078 kb/s
    Writing application         : x264.exe
    Writing library             : mkv2rls v1.4 (date: 2011 mar 29)
    
    Video
    ID                          : 1
    Format                      : AVC
    Format/Info                 : Advanced Video Codec
    Format profile              : [email protected]
    Format settings             : CABAC / 4 Ref Frames
    Format settings, CABAC      : Yes
    Format settings, Reference  : 4 frames
    Codec ID                    : V_MPEG4/ISO/AVC
    Duration                    : 2 h 0 min
    Bit rate                    : 8 307 kb/s
    Width                       : 1 920 pixels
    Height                      : 992 pixels
    Display aspect ratio        : 1.935
    Frame rate mode             : Constant
    Frame rate                  : 24.000 FPS
    Color space                 : YUV
    Chroma subsampling          : 4:2:0
    Bit depth                   : 8 bits
    Scan type                   : Progressive
    Bits/(Pixel*Frame)          : 0.182
    Stream size                 : 6.86 GiB (90%)
    Writing library             : x264 core 124 r2197 69a0443
    Encoding settings           : cabac=1 / ref=4 / deblock=1:0:0 / analyse=0x3:0x113 / me=umh / subme=8 / psy=1 / psy_rd=1.00:0.00 / mixed_ref=1 / me_range=16 / chroma_me=1 / trellis=1 / 8x8dct=1 / cqm=0 / deadzone=21,11 / fast_pskip=1 / chroma_qp_offset=-2 / threads=12 / sliced_threads=0 / nr=0 / decimate=1 / interlaced=0 / bluray_compat=0 / constrained_intra=0 / bframes=3 / b_pyramid=2 / b_adapt=2 / b_bias=0 / direct=3 / weightb=1 / open_gop=0 / weightp=2 / keyint=240 / keyint_min=24 / scenecut=40 / intra_refresh=0 / rc_lookahead=50 / rc=2pass / mbtree=1 / bitrate=8307 / ratetol=1.0 / qcomp=0.60 / qpmin=0 / qpmax=69 / qpstep=4 / cplxblur=20.0 / qblur=0.5 / ip_ratio=1.40 / aq=1:1.00
    Language                    : English
    Default                     : Yes
    Forced                      : No
    
    Audio
    ID                          : 2
    Format                      : DTS
    Format/Info                 : Digital Theater Systems
    Codec ID                    : A_DTS
    Duration                    : 2 h 0 min
    Bit rate mode               : Constant
    Bit rate                    : 768 kb/s
    Channel(s)                  : 6 channels
    Channel layout              : C L R Ls Rs LFE
    Sampling rate               : 48.0 kHz
    Frame rate                  : 93.750 FPS (512 SPF)
    Bit depth                   : 24 bits
    Compression mode            : Lossy
    Stream size                 : 663 MiB (8%)
    Language                    : English
    Default                     : Yes
    Forced                      : No
    
    Menu
    00:00:00.000                : en:00:00:00.000
    00:07:42.458                : en:00:07:42.458
    00:15:56.583                : en:00:15:56.583
    00:21:22.458                : en:00:21:22.458
    00:31:16.583                : en:00:31:16.583
    00:38:55.000                : en:00:38:55.000
    00:47:52.958                : en:00:47:52.958
    00:54:00.125                : en:00:54:00.125
    01:02:17.417                : en:01:02:17.417
    01:11:04.750                : en:01:11:04.750
    01:20:32.458                : en:01:20:32.458
    01:25:50.667                : en:01:25:50.667
    01:30:52.292                : en:01:30:52.292
    01:42:00.667                : en:01:42:00.667
    01:49:55.333                : en:01:49:55.333
    Download - Mirror 1:
    Download - Mirror 2:
     
  2. Loading...


Share This Page