Google Drive Portrait.of.A.Lady.on.Fire.2019.1080p.Bluray.X264-EVO

Discussion in 'BDRip | 720p/1080p' started by DDLbase, Feb 21, 2020.

  1. DDLbase

    DDLbase Administrator Staff Member

    [​IMG]
    [​IMG]
    Code:
    General
    Unique ID                   : 180587444529693090873479012477066845059 (0x87DBE06F697170092ED9E41AAFD09B83)
    Complete name               : C:\Portrait.of.A.Lady.on.Fire.2019.1080p.Bluray.X264-EVO.mkv
    Format                      : Matroska
    Format version              : Version 4
    File size                   : 10.5 GiB
    Duration                    : 2 h 1 min
    Overall bit rate            : 12.4 Mb/s
    Movie name                  : EVO
    Encoded date                : UTC 2020-02-21 16:11:48
    Writing application         : mkvmerge v30.1.0 ('Forever And More') 64-bit
    Writing library             : libebml v1.3.6 + libmatroska v1.4.9
    
    Video
    ID                          : 1
    Format                      : AVC
    Format/Info                 : Advanced Video Codec
    Format profile              : [email protected]
    Format settings             : CABAC / 4 Ref Frames
    Format settings, CABAC      : Yes
    Format settings, Reference  : 4 frames
    Codec ID                    : V_MPEG4/ISO/AVC
    Duration                    : 2 h 1 min
    Bit rate                    : 11.1 Mb/s
    Width                       : 1 920 pixels
    Height                      : 1 040 pixels
    Display aspect ratio        : 1.85:1
    Frame rate mode             : Constant
    Frame rate                  : 24.000 FPS
    Color space                 : YUV
    Chroma subsampling          : 4:2:0
    Bit depth                   : 8 bits
    Scan type                   : Progressive
    Bits/(Pixel*Frame)          : 0.231
    Stream size                 : 9.18 GiB (88%)
    Writing library             : x264 core 142 r2479 dd79a61
    Encoding settings           : cabac=1 / ref=1 / deblock=1:0:0 / analyse=0x3:0x3 / me=dia / subme=1 / psy=1 / psy_rd=1.00:0.00 / mixed_ref=0 / me_range=16 / chroma_me=1 / trellis=0 / 8x8dct=1 / cqm=0 / deadzone=21,11 / fast_pskip=1 / chroma_qp_offset=0 / threads=24 / lookahead_threads=4 / sliced_threads=0 / nr=0 / decimate=1 / interlaced=0 / bluray_compat=0 / constrained_intra=0 / bframes=3 / b_pyramid=2 / b_adapt=1 / b_bias=0 / direct=1 / weightb=1 / open_gop=0 / weightp=1 / keyint=240 / keyint_min=24 / scenecut=40 / intra_refresh=0 / rc_lookahead=0 / rc=abr / mbtree=0 / bitrate=11064 / ratetol=1.0 / qcomp=0.60 / qpmin=0 / qpmax=69 / qpstep=4 / vbv_maxrate=62500 / vbv_bufsize=78125 / nal_hrd=none / filler=0 / ip_ratio=1.40 / pb_ratio=1.30 / aq=1:1.00
    Default                     : Yes
    Forced                      : No
    Color range                 : Limited
    Color primaries             : BT.709
    Transfer characteristics    : BT.709
    Matrix coefficients         : BT.709
    
    Audio
    ID                          : 2
    Format                      : DTS
    Format/Info                 : Digital Theater Systems
    Codec ID                    : A_DTS
    Duration                    : 2 h 1 min
    Bit rate mode               : Constant
    Bit rate                    : 1 509 kb/s
    Channel(s)                  : 6 channels
    Channel layout              : C L R Ls Rs LFE
    Sampling rate               : 48.0 kHz
    Frame rate                  : 93.750 FPS (512 SPF)
    Bit depth                   : 24 bits
    Compression mode            : Lossy
    Stream size                 : 1.28 GiB (12%)
    Title                       : Surround
    Language                    : French
    Default                     : Yes
    Forced                      : No
    
    Menu
    00:00:00.000                : :00:00:00.000
    00:08:41.458                : :00:08:41.375
    00:18:40.166                : :00:18:39.917
    00:29:06.708                : :00:29:06.625
    00:40:16.458                : :00:40:16.375
    00:48:50.291                : :00:48:50.208
    00:58:21.916                : :00:58:21.833
    01:07:31.791                : :01:07:31.708
    01:20:03.416                : :01:20:03.333
    01:27:38.458                : :01:27:38.375
    01:38:52.958                : :01:38:52.750
    01:47:55.541                : :01:47:55.417
    Download:
     
  2. Loading...


Share This Page