Google Drive Raw.Deal.1986.1080p.BluRay.x264.DTS-FGT

Discussion in 'BDRip | 720p/1080p' started by DDLbase, May 5, 2021.

  1. DDLbase

    DDLbase Administrator Staff Member

    [​IMG]

    Rating: 5.6/10 based on 31,757 user ratings

    Genres: Action, Crime, Thriller

    A former FBI agent turned small-town sheriff agrees to help the FBI chief infiltrate the Chicago mafia when the FBI chief’s son is killed by them.

    [​IMG]
    Code:
    General
    Unique ID                   : 217234892597596743181040155122764424366 (0xA36DEB2052734055B6BB5E5C6C5D24AE)
    Complete name               : Raw.Deal.1986.1080p.BluRay.x264.DTS-FGT.mkv
    Format                      : Matroska
    Format version              : Version 4
    File size                   : 8.42 GiB
    Duration                    : 1 h 45 min
    Overall bit rate            : 11.4 Mb/s
    Movie name                  : Raw.Deal.1986.1080p.BluRay.x264.DTS-FGT
    Encoded date                : UTC 2015-09-18 14:37:09
    Writing application         : mkvmerge v8.3.0 ('Over the Horizon') 64bit
    Writing library             : libebml v1.3.1 + libmatroska v1.4.2
    Cover                       : Yes
    Attachments                 : cover.jpg / cover_land.jpg / small_cover.jpg / small_cover_land.jpg
    
    Video
    ID                          : 1
    Format                      : AVC
    Format/Info                 : Advanced Video Codec
    Format profile              : [email protected]
    Format settings             : 2 Ref Frames
    Format settings, CABAC      : No
    Format settings, Reference  : 2 frames
    Codec ID                    : V_MPEG4/ISO/AVC
    Duration                    : 1 h 45 min
    Bit rate                    : 10 000 kb/s
    Width                       : 1 920 pixels
    Height                      : 816 pixels
    Display aspect ratio        : 2.35:1
    Frame rate mode             : Constant
    Frame rate                  : 24.000 FPS
    Color space                 : YUV
    Chroma subsampling          : 4:2:0
    Bit depth                   : 8 bits
    Scan type                   : Progressive
    Bits/(Pixel*Frame)          : 0.266
    Stream size                 : 7.14 GiB (85%)
    Writing library             : x264 core 112
    Encoding settings           : cabac=0 / ref=1 / deblock=1:0:0 / analyse=0x1:0x111 / me=umh / subme=5 / psy=1 / psy_rd=0.00:0.00 / mixed_ref=0 / me_range=16 / chroma_me=1 / trellis=0 / 8x8dct=0 / cqm=0 / deadzone=21,11 / fast_pskip=0 / chroma_qp_offset=0 / threads=6 / sliced_threads=0 / nr=0 / decimate=1 / interlaced=0 / constrained_intra=0 / bframes=3 / b_pyramid=0 / b_adapt=1 / b_bias=0 / direct=1 / weightb=0 / open_gop=0 / weightp=0 / keyint=240 / keyint_min=24 / scenecut=40 / intra_refresh=0 / rc_lookahead=40 / rc=abr / mbtree=1 / bitrate=10000 / ratetol=1.0 / qcomp=0.60 / qpmin=3 / qpmax=51 / qpstep=4 / ip_ratio=1.40 / aq=1:1.00
    Language                    : English
    Default                     : Yes
    Forced                      : No
    Color range                 : Limited
    Color primaries             : BT.709
    Transfer characteristics    : BT.709
    Matrix coefficients         : BT.709
    
    Audio
    ID                          : 2
    Format                      : DTS
    Format/Info                 : Digital Theater Systems
    Codec ID                    : A_DTS
    Duration                    : 1 h 45 min
    Bit rate mode               : Constant
    Bit rate                    : 1 509 kb/s
    Channel(s)                  : 6 channels
    Channel layout              : C L R Ls Rs LFE
    Sampling rate               : 48.0 kHz
    Frame rate                  : 93.750 FPS (512 SPF)
    Bit depth                   : 16 bits
    Compression mode            : Lossy
    Stream size                 : 1.11 GiB (13%)
    Language                    : English
    Default                     : Yes
    Forced                      : No
    
    Menu
    00:00:00.000                : en:Chapter 1
    00:08:25.351                : en:Chapter 2
    00:12:14.309                : en:Chapter 3
    00:20:27.268                : en:Chapter 4
    00:29:02.726                : en:Chapter 5
    00:36:54.934                : en:Chapter 6
    00:44:50.268                : en:Chapter 7
    00:54:07.934                : en:Chapter 8
    01:06:36.809                : en:Chapter 9
    01:14:30.726                : en:Chapter 10
    01:22:48.351                : en:Chapter 11
    01:25:12.018                : en:Chapter 12
    01:29:49.518                : en:Chapter 13
    01:36:23.559                : en:Chapter 14
    01:42:25.184                : en:Chapter 15
    Download - Mirror 1:
    Download - Mirror 2:
     
  2. Loading...


Share This Page