Google Drive Red.Road.2006.1080p.BluRay.x264-AVCHD

Discussion in 'BDRip | 720p/1080p' started by DDLbase, Oct 15, 2020.

  1. DDLbase

    DDLbase Administrator Staff Member

    [​IMG]

    Rating: 6.8/10 based on 12,093 user ratings

    Genres: Drama, Mystery, Thriller

    Jackie works as a CCTV operator. Each day she watches over a small part of the world, protecting the people living their lives under her gaze. One day a man appears on her monitor, a man she thought she would never see again, a man she never wanted to see again. Now she has no choice, she is compelled to confront him.

    [​IMG]
    Code:
    General
    Unique ID                   : 188938266318906322167842709769510292579 (0x8E242FBCC99C02448555CE94BDE58C63)
    Complete name               : Red.Road.2006.1080p.BluRay.x264-AVCHD.mkv
    Format                      : Matroska
    Format version              : Version 4
    File size                   : 7.95 GiB
    Duration                    : 1 h 49 min
    Overall bit rate            : 10.4 Mb/s
    Movie name                  : Red.Road.2006.1080p.BluRay.x264-AVCHD
    Encoded date                : UTC 2016-08-08 18:48:53
    Writing application         : mkvmerge v9.3.1 ('Mask Machine') 64bit
    Writing library             : libebml v1.3.4 + libmatroska v1.4.5
    Cover                       : Yes
    Attachments                 : cover_land.jpg / small_cover.jpg / small_cover_land.jpg / cover.jpg
    
    Video
    ID                          : 1
    Format                      : AVC
    Format/Info                 : Advanced Video Codec
    Format profile              : [email protected]
    Format settings             : CABAC / 4 Ref Frames
    Format settings, CABAC      : Yes
    Format settings, Reference  : 4 frames
    Codec ID                    : V_MPEG4/ISO/AVC
    Duration                    : 1 h 49 min
    Bit rate                    : 8 873 kb/s
    Width                       : 1 920 pixels
    Height                      : 1 040 pixels
    Display aspect ratio        : 1.85:1
    Frame rate mode             : Constant
    Frame rate                  : 25.000 FPS
    Color space                 : YUV
    Chroma subsampling          : 4:2:0
    Bit depth                   : 8 bits
    Scan type                   : Progressive
    Bits/(Pixel*Frame)          : 0.178
    Stream size                 : 6.63 GiB (83%)
    Writing library             : x264 core 83 r1391 3d0f110
    Encoding settings           : cabac=1 / ref=4 / deblock=1:0:0 / analyse=0x3:0x133 / me=umh / subme=7 / psy=1 / psy_rd=1.0:0.0 / mixed_ref=1 / me_range=16 / chroma_me=1 / trellis=1 / 8x8dct=1 / cqm=0 / deadzone=21,11 / fast_pskip=0 / chroma_qp_offset=-2 / threads=12 / sliced_threads=0 / nr=0 / decimate=1 / mbaff=0 / constrained_intra=0 / bframes=3 / b_pyramid=0 / b_adapt=1 / b_bias=0 / direct=1 / wpredb=1 / wpredp=2 / keyint=250 / keyint_min=25 / scenecut=40 / intra_refresh=0 / rc_lookahead=40 / rc=2pass / mbtree=1 / bitrate=8873 / ratetol=1.0 / qcomp=0.60 / qpmin=10 / qpmax=51 / qpstep=4 / cplxblur=20.0 / qblur=0.5 / ip_ratio=1.40 / aq=1:1.00
    Language                    : English
    Default                     : Yes
    Forced                      : No
    
    Audio
    ID                          : 2
    Format                      : DTS
    Format/Info                 : Digital Theater Systems
    Codec ID                    : A_DTS
    Duration                    : 1 h 49 min
    Bit rate mode               : Constant
    Bit rate                    : 1 509 kb/s
    Channel(s)                  : 6 channels
    Channel layout              : C L R Ls Rs LFE
    Sampling rate               : 48.0 kHz
    Frame rate                  : 93.750 FPS (512 SPF)
    Bit depth                   : 24 bits
    Compression mode            : Lossy
    Stream size                 : 1.16 GiB (15%)
    Language                    : English
    Default                     : No
    Forced                      : No
    
    Text
    ID                          : 3
    Format                      : UTF-8
    Codec ID                    : S_TEXT/UTF8
    Codec ID/Info               : UTF-8 Plain Text
    Language                    : English
    Default                     : No
    Forced                      : No
    Download - Mirror 1:
    Download - Mirror 2:
     
  2. Loading...


Share This Page