Google Drive Remember.2015.1080p.BluRay.x264-PSYCHD

Discussion in 'BDRip | 720p/1080p' started by DDLbase, Aug 29, 2020.

  1. DDLbase

    DDLbase Administrator Staff Member

    [​IMG]

    Rating: 7.5/10 based on 21,952 user ratings

    Genres: Drama, Mystery, Thriller

    With the aid of a fellow Auschwitz survivor and a hand-written letter, an elderly man with dementia goes in search of the person he believes to be responsible for the death of his family in the death camp to kill him himself.

    [​IMG]
    Code:
    General
    Unique ID                   : 0 (0x0)
    Complete name               : Remember.2015.1080p.BluRay.x264-PSYCHD.mkv
    Format                      : Matroska
    Format version              : Version 4
    File size                   : 6.56 GiB
    Duration                    : 1 h 34 min
    Overall bit rate            : 9 945 kb/s
    Encoded date                : UTC 2010-02-22 21:41:29
    Writing application         : no_variable_data
    Writing library             : no_variable_data
    
    Video
    ID                          : 1
    Format                      : AVC
    Format/Info                 : Advanced Video Codec
    Format profile              : [email protected]
    Format settings             : CABAC / 4 Ref Frames
    Format settings, CABAC      : Yes
    Format settings, Reference  : 4 frames
    Codec ID                    : V_MPEG4/ISO/AVC
    Duration                    : 1 h 34 min
    Bit rate                    : 8 442 kb/s
    Width                       : 1 920 pixels
    Height                      : 1 080 pixels
    Display aspect ratio        : 16:9
    Frame rate mode             : Constant
    Frame rate                  : 23.976 (24000/1001) FPS
    Color space                 : YUV
    Chroma subsampling          : 4:2:0
    Bit depth                   : 8 bits
    Scan type                   : Progressive
    Bits/(Pixel*Frame)          : 0.170
    Stream size                 : 5.43 GiB (83%)
    Writing library             : x264 core 148 r2665 a01e339
    Encoding settings           : cabac=1 / ref=4 / deblock=1:0:0 / analyse=0x3:0x113 / me=umh / subme=8 / psy=1 / psy_rd=1.00:0.00 / mixed_ref=1 / me_range=16 / chroma_me=1 / trellis=1 / 8x8dct=1 / cqm=0 / deadzone=21,11 / fast_pskip=1 / chroma_qp_offset=-2 / threads=12 / lookahead_threads=2 / sliced_threads=0 / nr=0 / decimate=1 / interlaced=0 / bluray_compat=0 / constrained_intra=0 / bframes=3 / b_pyramid=2 / b_adapt=2 / b_bias=0 / direct=3 / weightb=1 / open_gop=0 / weightp=2 / keyint=240 / keyint_min=24 / scenecut=40 / intra_refresh=0 / rc_lookahead=50 / rc=2pass / mbtree=1 / bitrate=8442 / ratetol=1.0 / qcomp=0.60 / qpmin=0 / qpmax=69 / qpstep=4 / cplxblur=20.0 / qblur=0.5 / ip_ratio=1.40 / aq=1:1.00
    Language                    : English
    Default                     : Yes
    Forced                      : No
    Statistics Tags Issue       : no_variable_data 1970-01-01 00:00:00 / no_variable_data 2010-02-22 21:41:29
    FromStats_BitRate           : 8433289
    FromStats_Duration          : 01:34:22.449000000
    FromStats_FrameCount        : 135763
    FromStats_StreamSize        : 5969134057
    
    Audio
    ID                          : 2
    Format                      : DTS
    Format/Info                 : Digital Theater Systems
    Codec ID                    : A_DTS
    Duration                    : 1 h 34 min
    Bit rate mode               : Constant
    Bit rate                    : 1 509 kb/s
    Channel(s)                  : 6 channels
    Channel layout              : C L R Ls Rs LFE
    Sampling rate               : 48.0 kHz
    Frame rate                  : 93.750 FPS (512 SPF)
    Bit depth                   : 24 bits
    Compression mode            : Lossy
    Stream size                 : 1 019 MiB (15%)
    Language                    : English
    Default                     : Yes
    Forced                      : No
    Statistics Tags Issue       : no_variable_data 1970-01-01 00:00:00 / no_variable_data 2010-02-22 21:41:29
    FromStats_BitRate           : 1508999
    FromStats_Duration          : 01:34:22.411000000
    FromStats_FrameCount        : 530851
    FromStats_StreamSize        : 1068072212
    
    Text #1
    ID                          : 3
    Format                      : UTF-8
    Codec ID                    : S_TEXT/UTF8
    Codec ID/Info               : UTF-8 Plain Text
    Title                       : Forced
    Language                    : English
    Default                     : Yes
    Forced                      : Yes
    Statistics Tags Issue       : no_variable_data 1970-01-01 00:00:00 / no_variable_data 2010-02-22 21:41:29
    FromStats_BitRate           : 1
    FromStats_Duration          : 00:59:23.309000000
    FromStats_FrameCount        : 18
    FromStats_StreamSize        : 476
    
    Text #2
    ID                          : 4
    Format                      : UTF-8
    Codec ID                    : S_TEXT/UTF8
    Codec ID/Info               : UTF-8 Plain Text
    Language                    : English
    Default                     : No
    Forced                      : No
    Statistics Tags Issue       : no_variable_data 1970-01-01 00:00:00 / no_variable_data 2010-02-22 21:41:29
    FromStats_BitRate           : 47
    FromStats_Duration          : 01:26:26.389000000
    FromStats_FrameCount        : 1032
    FromStats_StreamSize        : 30968
    
    Text #3
    ID                          : 5
    Format                      : UTF-8
    Codec ID                    : S_TEXT/UTF8
    Codec ID/Info               : UTF-8 Plain Text
    Title                       : SDH
    Language                    : English
    Default                     : No
    Forced                      : No
    Statistics Tags Issue       : no_variable_data 1970-01-01 00:00:00 / no_variable_data 2010-02-22 21:41:29
    FromStats_BitRate           : 51
    FromStats_Duration          : 01:26:26.389000000
    FromStats_FrameCount        : 1128
    FromStats_StreamSize        : 33402
    
    Menu
    00:00:00.000                : en:00:00:00.000
    00:05:37.921                : en:00:05:37.921
    00:12:25.161                : en:00:12:25.161
    00:16:32.742                : en:00:16:32.742
    00:25:00.541                : en:00:25:00.541
    00:30:11.768                : en:00:30:11.768
    00:36:11.544                : en:00:36:11.544
    00:41:55.638                : en:00:41:55.638
    00:46:31.706                : en:00:46:31.706
    00:52:22.014                : en:00:52:22.014
    00:57:59.726                : en:00:57:59.726
    01:03:39.149                : en:01:03:39.149
    01:10:19.966                : en:01:10:19.966
    01:16:33.839                : en:01:16:33.839
    01:21:17.831                : en:01:21:17.831
    01:28:20.212                : en:01:28:20.212
    Download - Mirror 1:
    Download - Mirror 2:
     
  2. Loading...


Share This Page