MEGA Reservoir.Dogs.1992.Blu-ray.TrueHD.h264.Remux-Section9

Discussion in 'BD REMUX | 1080p' started by DDLbase, Aug 21, 2019.

  1. DDLbase

    DDLbase Administrator Staff Member

    [​IMG]

    Director: Quentin Tarantino
    Stars: Harvey Keitel, Tim Roth, Michael Madsen, Chris Penn

    Runtime: 99 min (taken from IMDb)
    Genre: Crime, Drama, Thriller

    Rating: 8.3/10* (may differ)
    Votes: 834,243 (may differ)

    Release Date: 02 Sep 1992 (taken from IMDb)
    Viewer Rating (TV/MPAA): R (taken from IMDb)

    Summary: When a simple jewelry heist goes horribly wrong, the surviving criminals begin to suspect that one of them is a police informant.

    Code:
    General
    Unique ID                   : 175959059857362747073428555944762878575 (0x84607B73DACC2DF8ABE86244E05D2A6F)
    Complete name               : Reservoir.Dogs.1992.Blu-ray.TrueHD.h264.Remux-Section9.mkv
    Format                      : Matroska
    Format version              : Version 4
    File size                   : 25.8 GiB
    Duration                    : 1 h 39 min
    Overall bit rate mode       : Variable
    Overall bit rate            : 37.2 Mb/s
    Encoded date                : UTC 2014-12-08 20:54:17
    Writing application         : mkvmerge v7.3.0 ('Nouages') 64bit built on Oct 22 2014 18:53:34
    Writing library             : libebml v1.3.0 + libmatroska v1.4.1
    
    Video
    ID                          : 1
    Format                      : AVC
    Format/Info                 : Advanced Video Codec
    Format profile              : [email protected]
    Format settings             : CABAC / 4 Ref Frames
    Format settings, CABAC      : Yes
    Format settings, ReFrames   : 4 frames
    Codec ID                    : V_MPEG4/ISO/AVC
    Duration                    : 1 h 39 min
    Bit rate mode               : Variable
    Bit rate                    : 34.9 Mb/s
    Maximum bit rate            : 37.0 Mb/s
    Width                       : 1 920 pixels
    Height                      : 1 080 pixels
    Display aspect ratio        : 16:9
    Frame rate mode             : Constant
    Frame rate                  : 23.976 (24000/1001) FPS
    Color space                 : YUV
    Chroma subsampling          : 4:2:0
    Bit depth                   : 8 bits
    Scan type                   : Progressive
    Bits/(Pixel*Frame)          : 0.703
    Stream size                 : 24.2 GiB (94%)
    Title                       : Reservoir Dogs
    Default                     : Yes
    Forced                      : No
    Color range                 : Limited
    Color primaries             : BT.709
    Transfer characteristics    : BT.709
    Matrix coefficients         : BT.709
    
    Audio #1
    ID                          : 2
    Format                      : MLP FBA
    Format/Info                 : Meridian Lossless Packing FBA
    Commercial name             : Dolby TrueHD
    Codec ID                    : A_TRUEHD
    Duration                    : 1 h 39 min
    Bit rate mode               : Variable
    Bit rate                    : 1 227 kb/s
    Maximum bit rate            : 2 247 kb/s
    Channel(s)                  : 6 channels
    Channel layout              : L R C LFE Ls Rs
    Sampling rate               : 48.0 kHz
    Frame rate                  : 1 200.000 FPS (40 SPF)
    Compression mode            : Lossless
    Stream size                 : 870 MiB (3%)
    Title                       : English
    Language                    : English
    Default                     : Yes
    Forced                      : No
    
    Audio #2
    ID                          : 3
    Format                      : AC-3
    Format/Info                 : Audio Coding 3
    Commercial name             : Dolby Digital
    Codec ID                    : A_AC3
    Duration                    : 1 h 39 min
    Bit rate mode               : Constant
    Bit rate                    : 640 kb/s
    Channel(s)                  : 2 channels
    Channel layout              : L R
    Sampling rate               : 48.0 kHz
    Frame rate                  : 31.250 FPS (1536 SPF)
    Bit depth                   : 16 bits
    Compression mode            : Lossy
    Stream size                 : 454 MiB (2%)
    Title                       : Commentary
    Language                    : English
    Service kind                : Complete Main
    Default                     : No
    Forced                      : No
    
    Text #1
    ID                          : 4
    Format                      : PGS
    Muxing mode                 : zlib
    Codec ID                    : S_HDMV/PGS
    Codec ID/Info               : Picture based subtitle format used on BDs/HD-DVDs
    Duration                    : 1 h 34 min
    Bit rate                    : 81.7 kb/s
    Count of elements           : 8593
    Stream size                 : 55.5 MiB (0%)
    Title                       : Japanese
    Language                    : Japanese
    Default                     : Yes
    Forced                      : No
    
    Text #2
    ID                          : 5
    Format                      : PGS
    Muxing mode                 : zlib
    Codec ID                    : S_HDMV/PGS
    Codec ID/Info               : Picture based subtitle format used on BDs/HD-DVDs
    Duration                    : 1 h 35 min
    Bit rate                    : 86.9 kb/s
    Count of elements           : 9262
    Stream size                 : 59.1 MiB (0%)
    Title                       : English
    Language                    : English
    Default                     : No
    Forced                      : No
    
    Text #3
    ID                          : 6
    Format                      : PGS
    Muxing mode                 : zlib
    Codec ID                    : S_HDMV/PGS
    Codec ID/Info               : Picture based subtitle format used on BDs/HD-DVDs
    Duration                    : 36 min 46 s
    Bit rate                    : 67 b/s
    Count of elements           : 11
    Stream size                 : 18.1 KiB (0%)
    Title                       : Japanese
    Language                    : Japanese
    Default                     : No
    Forced                      : No
    
    Text #4
    ID                          : 7
    Format                      : PGS
    Muxing mode                 : zlib
    Codec ID                    : S_HDMV/PGS
    Codec ID/Info               : Picture based subtitle format used on BDs/HD-DVDs
    Duration                    : 1 h 35 min
    Bit rate                    : 152 kb/s
    Count of elements           : 11633
    Stream size                 : 104 MiB (0%)
    Title                       : Japanese
    Language                    : Japanese
    Default                     : No
    Forced                      : No
    
    Text #5
    ID                          : 8
    Format                      : PGS
    Muxing mode                 : zlib
    Codec ID                    : S_HDMV/PGS
    Codec ID/Info               : Picture based subtitle format used on BDs/HD-DVDs
    Duration                    : 1 h 37 min
    Bit rate                    : 66.3 kb/s
    Count of elements           : 2387
    Stream size                 : 46.0 MiB (0%)
    Title                       : Japanese
    Language                    : Japanese
    Default                     : No
    Forced                      : No
    
    Menu
    00:00:00.000                : en::Madonna / No Tipping
    00:07:28.448                : en:Main Title
    00:09:39.496                : en:"Are You a Doctor?"
    00:11:09.794                : en:Waiting for Joe
    00:15:10.451                : en:"We Got Set Up!"
    00:18:55.843                : en:Who Did What and When
    00:21:32.041                : en:Working with Rats and Psychos
    00:26:28.128                : en:Mr. White / the Job
    00:28:13.650                : en:Mr White Feels Guilty
    00:32:58.685                : en:"Trigger-Happy Madman"
    00:37:44.262                : en:Mr. Blonde / Getting Around Parole
    00:45:30.728                : en:Eddie Has Some Questions
    00:52:33.484                : en:In a Cop's Ear
    01:00:16.071                : en:Dead Man Talking
    01:03:47.073                : en:Mr. Orange / Making Friends
    01:06:32.280                : en:The Commode Story
    01:14:21.957                : en:Eddie and Lady E
    01:19:43.445                : en:Colour Co-Ordination
    01:22:52.092                : en:The Layout
    01:24:37.864                : en:An Orange-White Getaway
    01:27:01.550                : en:Showdown Among Pros
    01:35:16.711                : en:End Credits
    Download:
     
  2. Loading...


Share This Page