Google Drive Resident.Evil.Afterlife.2010.2160p.UHD.BluRay.x265-TERMINAL

Discussion in 'BDRip | 4K' started by DDLbase, May 13, 2020.

  1. DDLbase

    DDLbase Administrator Staff Member

    [​IMG]

    Rating: 5.8/10 based on 158,431 user ratings

    Genres: Action, Adventure, Horror, Sci-Fi

    While still out to destroy the evil Umbrella Corporation, Alice joins a group of survivors living in a prison surrounded by the infected who also want to relocate to the mysterious but supposedly unharmed safe haven known only as Arcadia.

    [​IMG]
    Code:
    General
    Unique ID                   : 246211208700138277556508187688836286517 (0xB93A8DCF8831B799AAF696E14AA04835)
    Complete name               : Resident.Evil.Afterlife.2010.2160p.UHD.BluRay.x265-TERMINAL.mkv
    Format                      : Matroska
    Format version              : Version 4
    File size                   : 17.1 GiB
    Duration                    : 1 h 36 min
    Overall bit rate mode       : Variable
    Overall bit rate            : 25.2 Mb/s
    Encoded date                : UTC 2017-11-20 01:41:08
    Writing application         : mkvmerge v18.0.0 ('Apricity') 64-bit
    Writing library             : libebml v1.3.5 + libmatroska v1.4.8
    
    Video
    ID                          : 1
    Format                      : HEVC
    Format/Info                 : High Efficiency Video Coding
    Format profile              : Main [email protected]@High
    HDR format                  : SMPTE ST 2086, HDR10 compatible
    Codec ID                    : V_MPEGH/ISO/HEVC
    Duration                    : 1 h 36 min
    Bit rate                    : 19.1 Mb/s
    Width                       : 3 840 pixels
    Height                      : 1 606 pixels
    Display aspect ratio        : 2.40:1
    Frame rate mode             : Constant
    Frame rate                  : 23.976 (24000/1001) FPS
    Color space                 : YUV
    Chroma subsampling          : 4:2:0 (Type 2)
    Bit depth                   : 10 bits
    Bits/(Pixel*Frame)          : 0.129
    Stream size                 : 12.9 GiB (76%)
    Writing library             : x265 2.5+38-8a121d8cc134:[Windows][GCC 6.2.1][64 bit] 10bit
    Encoding settings           : cpuid=1173503 / frame-threads=4 / numa-pools=20 / wpp / no-pmode / no-pme / no-psnr / no-ssim / log-level=2 / input-csp=1 / input-res=3840x1606 / interlace=0 / total-frames=139368 / level-idc=51 / high-tier=1 / uhd-bd=0 / ref=4 / no-allow-non-conformance / repeat-headers / annexb / aud / hrd / info / hash=0 / no-temporal-layers / no-open-gop / min-keyint=1 / keyint=24 / bframes=4 / b-adapt=2 / b-pyramid / bframe-bias=0 / rc-lookahead=25 / lookahead-slices=4 / scenecut=40 / no-intra-refresh / ctu=64 / min-cu-size=8 / rect / no-amp / max-tu-size=32 / tu-inter-depth=1 / tu-intra-depth=1 / limit-tu=0 / rdoq-level=2 / dynamic-rd=0.00 / no-ssim-rd / signhide / no-tskip / nr-intra=0 / nr-inter=0 / no-constrained-intra / no-strong-intra-smoothing / max-merge=3 / limit-refs=3 / limit-modes / me=3 / subme=3 / merange=57 / temporal-mvp / weightp / no-weightb / no-analyze-src-pics / deblock=-3:-3 / no-sao / no-sao-non-deblock / rd=4 / no-early-skip / rskip / no-fast-intra / no-tskip-fast / no-cu-lossless / no-b-intra / no-splitrd-skip / rdpenalty=0 / psy-rd=2.00 / psy-rdoq=1.00 / no-rd-refine / analysis-reuse-mode=0 / no-lossless / cbqpoffs=0 / crqpoffs=0 / rc=crf / crf=17.0 / qcomp=0.60 / qpstep=4 / stats-write=0 / stats-read=0 / vbv-maxrate=160000 / vbv-bufsize=160000 / vbv-init=0.9 / crf-max=0.0 / crf-min=0.0 / ipratio=1.40 / pbratio=1.30 / aq-mode=1 / aq-strength=1.00 / cutree / zone-count=0 / no-strict-cbr / qg-size=32 / no-rc-grain / qpmax=69 / qpmin=0 / no-const-vbv / sar=1 / overscan=0 / videoformat=5 / range=0 / colorprim=9 / transfer=16 / colormatrix=9 / chromaloc=1 / chromaloc-top=2 / chromaloc-bottom=2 / display-window=0 / master-display=G(13250,34500)B(7500,3000)R(34000,16000)WP(15635,16450)L(40000000,50) / max-cll=0,0 / min-luma=0 / max-luma=1023 / log2-max-poc-lsb=8 / vui-timing-info / vui-hrd-info / slices=1 / opt-qp-pps / opt-ref-list-length-pps / no-multi-pass-opt-rps / scenecut-bias=0.05 / no-opt-cu-delta-qp / no-aq-motion / hdr / hdr-opt / no-dhdr10-opt / analysis-reuse-level=5 / scale-factor=0 / refine-intra=0 / refine-inter=0 / refine-mv=0 / no-limit-sao / ctu-info=0 / no-lowpass-dct
    Default                     : Yes
    Forced                      : No
    Color range                 : Limited
    Color primaries             : BT.2020
    Transfer characteristics    : PQ
    Matrix coefficients         : BT.2020 non-constant
    Mastering display color pri : Display P3
    Mastering display luminance : min: 0.0050 cd/m2, max: 4000 cd/m2
    
    Audio #1
    ID                          : 2
    Format                      : MLP FBA 16-ch
    Format/Info                 : Meridian Lossless Packing FBA with 16-channel presentation
    Commercial name             : Dolby TrueHD with Dolby Atmos
    Codec ID                    : A_TRUEHD
    Duration                    : 1 h 36 min
    Bit rate mode               : Variable
    Bit rate                    : 5 204 kb/s
    Maximum bit rate            : 9 423 kb/s
    Channel(s)                  : 8 channels
    Channel layout              : L R C LFE Ls Rs Lb Rb
    Sampling rate               : 48.0 kHz
    Frame rate                  : 1 200.000 FPS (40 SPF)
    Compression mode            : Lossless
    Stream size                 : 3.52 GiB (21%)
    Language                    : English
    Default                     : Yes
    Forced                      : No
    Number of dynamic objects   : 11
    Bed channel count           : 1 channel
    Bed channel configuration   : LFE
    
    Audio #2
    ID                          : 3
    Format                      : AC-3
    Format/Info                 : Audio Coding 3
    Commercial name             : Dolby Digital
    Codec ID                    : A_AC3
    Duration                    : 1 h 36 min
    Bit rate mode               : Constant
    Bit rate                    : 640 kb/s
    Channel(s)                  : 6 channels
    Channel layout              : L R C LFE Ls Rs
    Sampling rate               : 48.0 kHz
    Frame rate                  : 31.250 FPS (1536 SPF)
    Compression mode            : Lossy
    Delay relative to video     : 4 ms
    Stream size                 : 443 MiB (3%)
    Language                    : English
    Service kind                : Complete Main
    Default                     : No
    Forced                      : No
    
    Text #1
    ID                          : 4
    Format                      : PGS
    Muxing mode                 : zlib
    Codec ID                    : S_HDMV/PGS
    Codec ID/Info               : Picture based subtitle format used on BDs/HD-DVDs
    Duration                    : 1 min 32 s
    Bit rate                    : 12.4 kb/s
    Count of elements           : 24
    Stream size                 : 140 KiB (0%)
    Title                       : American English Forced
    Language                    : English
    Default                     : Yes
    Forced                      : No
    
    Text #2
    ID                          : 5
    Format                      : PGS
    Muxing mode                 : zlib
    Codec ID                    : S_HDMV/PGS
    Codec ID/Info               : Picture based subtitle format used on BDs/HD-DVDs
    Duration                    : 1 h 32 min
    Bit rate                    : 15.9 kb/s
    Count of elements           : 1304
    Stream size                 : 10.6 MiB (0%)
    Title                       : American English
    Language                    : English
    Default                     : No
    Forced                      : No
    
    Text #3
    ID                          : 6
    Format                      : PGS
    Muxing mode                 : zlib
    Codec ID                    : S_HDMV/PGS
    Codec ID/Info               : Picture based subtitle format used on BDs/HD-DVDs
    Duration                    : 1 h 36 min
    Bit rate                    : 18.3 kb/s
    Count of elements           : 1651
    Stream size                 : 12.6 MiB (0%)
    Title                       : American English SDH
    Language                    : English
    Default                     : No
    Forced                      : No
    
    Text #4
    ID                          : 7
    Format                      : PGS
    Muxing mode                 : zlib
    Codec ID                    : S_HDMV/PGS
    Codec ID/Info               : Picture based subtitle format used on BDs/HD-DVDs
    Duration                    : 1 min 32 s
    Bit rate                    : 12.4 kb/s
    Count of elements           : 24
    Stream size                 : 140 KiB (0%)
    Title                       : British English Forced
    Language                    : English
    Default                     : No
    Forced                      : No
    
    Text #5
    ID                          : 8
    Format                      : PGS
    Muxing mode                 : zlib
    Codec ID                    : S_HDMV/PGS
    Codec ID/Info               : Picture based subtitle format used on BDs/HD-DVDs
    Duration                    : 1 h 32 min
    Bit rate                    : 15.9 kb/s
    Count of elements           : 1308
    Stream size                 : 10.6 MiB (0%)
    Title                       : British English
    Language                    : English
    Default                     : No
    Forced                      : No
    
    Text #6
    ID                          : 9
    Format                      : PGS
    Muxing mode                 : zlib
    Codec ID                    : S_HDMV/PGS
    Codec ID/Info               : Picture based subtitle format used on BDs/HD-DVDs
    Duration                    : 1 h 36 min
    Bit rate                    : 18.3 kb/s
    Count of elements           : 1661
    Stream size                 : 12.6 MiB (0%)
    Title                       : British English SDH
    Language                    : English
    Default                     : No
    Forced                      : No
    
    Text #7
    ID                          : 10
    Format                      : PGS
    Muxing mode                 : zlib
    Codec ID                    : S_HDMV/PGS
    Codec ID/Info               : Picture based subtitle format used on BDs/HD-DVDs
    Duration                    : 1 h 32 min
    Bit rate                    : 14.7 kb/s
    Count of elements           : 1370
    Stream size                 : 9.78 MiB (0%)
    Language                    : Chinese
    Default                     : No
    Forced                      : No
    
    Text #8
    ID                          : 11
    Format                      : PGS
    Muxing mode                 : zlib
    Codec ID                    : S_HDMV/PGS
    Codec ID/Info               : Picture based subtitle format used on BDs/HD-DVDs
    Duration                    : 1 h 32 min
    Bit rate                    : 14.3 kb/s
    Count of elements           : 1370
    Stream size                 : 9.48 MiB (0%)
    Language                    : Chinese
    Default                     : No
    Forced                      : No
    
    Text #9
    ID                          : 12
    Format                      : PGS
    Muxing mode                 : zlib
    Codec ID                    : S_HDMV/PGS
    Codec ID/Info               : Picture based subtitle format used on BDs/HD-DVDs
    Duration                    : 1 h 32 min
    Bit rate                    : 14.5 kb/s
    Count of elements           : 1306
    Stream size                 : 9.62 MiB (0%)
    Language                    : Czech
    Default                     : No
    Forced                      : No
    
    Text #10
    ID                          : 13
    Format                      : PGS
    Muxing mode                 : zlib
    Codec ID                    : S_HDMV/PGS
    Codec ID/Info               : Picture based subtitle format used on BDs/HD-DVDs
    Duration                    : 1 h 32 min
    Bit rate                    : 15.5 kb/s
    Count of elements           : 1234
    Stream size                 : 10.3 MiB (0%)
    Language                    : Danish
    Default                     : No
    Forced                      : No
    
    Text #11
    ID                          : 14
    Format                      : PGS
    Muxing mode                 : zlib
    Codec ID                    : S_HDMV/PGS
    Codec ID/Info               : Picture based subtitle format used on BDs/HD-DVDs
    Duration                    : 1 h 32 min
    Bit rate                    : 16.1 kb/s
    Count of elements           : 1342
    Stream size                 : 10.7 MiB (0%)
    Language                    : Estonian
    Default                     : No
    Forced                      : No
    
    Text #12
    ID                          : 15
    Format                      : PGS
    Muxing mode                 : zlib
    Codec ID                    : S_HDMV/PGS
    Codec ID/Info               : Picture based subtitle format used on BDs/HD-DVDs
    Duration                    : 1 h 32 min
    Bit rate                    : 13.4 kb/s
    Count of elements           : 1136
    Stream size                 : 8.90 MiB (0%)
    Language                    : Finnish
    Default                     : No
    Forced                      : No
    
    Text #13
    ID                          : 16
    Format                      : PGS
    Muxing mode                 : zlib
    Codec ID                    : S_HDMV/PGS
    Codec ID/Info               : Picture based subtitle format used on BDs/HD-DVDs
    Duration                    : 1 h 32 min
    Bit rate                    : 14.4 kb/s
    Count of elements           : 1286
    Stream size                 : 9.54 MiB (0%)
    Language                    : French
    Default                     : No
    Forced                      : No
    
    Text #14
    ID                          : 17
    Format                      : PGS
    Muxing mode                 : zlib
    Codec ID                    : S_HDMV/PGS
    Codec ID/Info               : Picture based subtitle format used on BDs/HD-DVDs
    Duration                    : 1 h 32 min
    Bit rate                    : 13.3 kb/s
    Count of elements           : 1344
    Stream size                 : 8.81 MiB (0%)
    Language                    : Hindi
    Default                     : No
    Forced                      : No
    
    Text #15
    ID                          : 18
    Format                      : PGS
    Muxing mode                 : zlib
    Codec ID                    : S_HDMV/PGS
    Codec ID/Info               : Picture based subtitle format used on BDs/HD-DVDs
    Duration                    : 1 h 32 min
    Bit rate                    : 14.7 kb/s
    Count of elements           : 1346
    Stream size                 : 9.75 MiB (0%)
    Language                    : Hungarian
    Default                     : No
    Forced                      : No
    
    Text #16
    ID                          : 19
    Format                      : PGS
    Muxing mode                 : zlib
    Codec ID                    : S_HDMV/PGS
    Codec ID/Info               : Picture based subtitle format used on BDs/HD-DVDs
    Duration                    : 1 h 32 min
    Bit rate                    : 15.7 kb/s
    Count of elements           : 1162
    Stream size                 : 10.4 MiB (0%)
    Language                    : Icelandic
    Default                     : No
    Forced                      : No
    
    Text #17
    ID                          : 20
    Format                      : PGS
    Muxing mode                 : zlib
    Codec ID                    : S_HDMV/PGS
    Codec ID/Info               : Picture based subtitle format used on BDs/HD-DVDs
    Duration                    : 1 h 32 min
    Bit rate                    : 16.9 kb/s
    Count of elements           : 1348
    Stream size                 : 11.2 MiB (0%)
    Language                    : Italian
    Default                     : No
    Forced                      : No
    
    Text #18
    ID                          : 21
    Format                      : PGS
    Muxing mode                 : zlib
    Codec ID                    : S_HDMV/PGS
    Codec ID/Info               : Picture based subtitle format used on BDs/HD-DVDs
    Duration                    : 1 h 35 min
    Bit rate                    : 10.5 kb/s
    Count of elements           : 1350
    Stream size                 : 7.21 MiB (0%)
    Language                    : Korean
    Default                     : No
    Forced                      : No
    
    Text #19
    ID                          : 22
    Format                      : PGS
    Muxing mode                 : zlib
    Codec ID                    : S_HDMV/PGS
    Codec ID/Info               : Picture based subtitle format used on BDs/HD-DVDs
    Duration                    : 1 h 32 min
    Bit rate                    : 15.0 kb/s
    Count of elements           : 1350
    Stream size                 : 9.98 MiB (0%)
    Language                    : Lithuanian
    Default                     : No
    Forced                      : No
    
    Text #20
    ID                          : 23
    Format                      : PGS
    Muxing mode                 : zlib
    Codec ID                    : S_HDMV/PGS
    Codec ID/Info               : Picture based subtitle format used on BDs/HD-DVDs
    Duration                    : 1 h 32 min
    Bit rate                    : 12.8 kb/s
    Count of elements           : 1282
    Stream size                 : 8.50 MiB (0%)
    Language                    : Norwegian
    Default                     : No
    Forced                      : No
    
    Text #21
    ID                          : 24
    Format                      : PGS
    Muxing mode                 : zlib
    Codec ID                    : S_HDMV/PGS
    Codec ID/Info               : Picture based subtitle format used on BDs/HD-DVDs
    Duration                    : 1 h 32 min
    Bit rate                    : 12.8 kb/s
    Count of elements           : 1244
    Stream size                 : 8.47 MiB (0%)
    Language                    : Polish
    Default                     : No
    Forced                      : No
    
    Text #22
    ID                          : 25
    Format                      : PGS
    Muxing mode                 : zlib
    Codec ID                    : S_HDMV/PGS
    Codec ID/Info               : Picture based subtitle format used on BDs/HD-DVDs
    Duration                    : 1 h 35 min
    Bit rate                    : 14.3 kb/s
    Count of elements           : 1348
    Stream size                 : 9.79 MiB (0%)
    Language                    : Portuguese
    Default                     : No
    Forced                      : No
    
    Text #23
    ID                          : 26
    Format                      : PGS
    Muxing mode                 : zlib
    Codec ID                    : S_HDMV/PGS
    Codec ID/Info               : Picture based subtitle format used on BDs/HD-DVDs
    Duration                    : 1 h 35 min
    Bit rate                    : 16.2 kb/s
    Count of elements           : 1346
    Stream size                 : 11.1 MiB (0%)
    Language                    : Portuguese
    Default                     : No
    Forced                      : No
    
    Text #24
    ID                          : 27
    Format                      : PGS
    Muxing mode                 : zlib
    Codec ID                    : S_HDMV/PGS
    Codec ID/Info               : Picture based subtitle format used on BDs/HD-DVDs
    Duration                    : 1 h 35 min
    Bit rate                    : 15.9 kb/s
    Count of elements           : 1310
    Stream size                 : 10.9 MiB (0%)
    Language                    : Romanian
    Default                     : No
    Forced                      : No
    
    Text #25
    ID                          : 28
    Format                      : PGS
    Muxing mode                 : zlib
    Codec ID                    : S_HDMV/PGS
    Codec ID/Info               : Picture based subtitle format used on BDs/HD-DVDs
    Duration                    : 1 h 32 min
    Bit rate                    : 15.2 kb/s
    Count of elements           : 1342
    Stream size                 : 10.1 MiB (0%)
    Language                    : Slovak
    Default                     : No
    Forced                      : No
    
    Text #26
    ID                          : 29
    Format                      : PGS
    Muxing mode                 : zlib
    Codec ID                    : S_HDMV/PGS
    Codec ID/Info               : Picture based subtitle format used on BDs/HD-DVDs
    Duration                    : 1 h 32 min
    Bit rate                    : 13.3 kb/s
    Count of elements           : 1338
    Stream size                 : 8.86 MiB (0%)
    Language                    : Slovenian
    Default                     : No
    Forced                      : No
    
    Text #27
    ID                          : 30
    Format                      : PGS
    Muxing mode                 : zlib
    Codec ID                    : S_HDMV/PGS
    Codec ID/Info               : Picture based subtitle format used on BDs/HD-DVDs
    Duration                    : 1 h 32 min
    Bit rate                    : 15.0 kb/s
    Count of elements           : 1350
    Stream size                 : 9.98 MiB (0%)
    Language                    : Spanish
    Default                     : No
    Forced                      : No
    
    Text #28
    ID                          : 31
    Format                      : PGS
    Muxing mode                 : zlib
    Codec ID                    : S_HDMV/PGS
    Codec ID/Info               : Picture based subtitle format used on BDs/HD-DVDs
    Duration                    : 1 h 35 min
    Bit rate                    : 15.0 kb/s
    Count of elements           : 1338
    Stream size                 : 10.3 MiB (0%)
    Language                    : Spanish
    Default                     : No
    Forced                      : No
    
    Text #29
    ID                          : 32
    Format                      : PGS
    Muxing mode                 : zlib
    Codec ID                    : S_HDMV/PGS
    Codec ID/Info               : Picture based subtitle format used on BDs/HD-DVDs
    Duration                    : 1 h 32 min
    Bit rate                    : 13.9 kb/s
    Count of elements           : 1106
    Stream size                 : 9.22 MiB (0%)
    Language                    : Swedish
    Default                     : No
    Forced                      : No
    
    Menu
    00:00:00.000                : en:00:00:00.000
    00:07:51.304                : en:00:07:51.304
    00:14:04.552                : en:00:14:04.552
    00:19:21.369                : en:00:19:21.369
    00:25:23.939                : en:00:25:23.939
    00:30:07.222                : en:00:30:07.222
    00:35:08.189                : en:00:35:08.189
    00:41:51.092                : en:00:41:51.092
    00:47:07.241                : en:00:47:07.241
    00:53:41.468                : en:00:53:41.468
    01:00:53.942                : en:01:00:53.942
    01:07:58.533                : en:01:07:58.533
    01:14:07.985                : en:01:14:07.985
    01:17:54.712                : en:01:17:54.712
    01:23:39.014                : en:01:23:39.014
    01:27:24.489                : en:01:27:24.489
    Download:
     
  2. Loading...


Share This Page