Google Drive Resistance.2020.1080p.Bluray.X264.DTS-EVO

Discussion in 'BDRip | 720p/1080p' started by DDLbase, Jul 10, 2020.

  1. DDLbase

    DDLbase Administrator Staff Member

    [​IMG]

    Rating: 6.1/10 based on 1,626 user ratings

    Genres: Biography, Drama, History, War

    The story of a group of Jewish Boy Scouts who worked with the French Resistance to save the lives of ten thousand orphans during World War II.

    [​IMG]
    Code:
    General
    Unique ID                   : 105245392233619045845336704420226243372 (0x4F2D8676343CA9F3B7C5B881FC179B2C)
    Complete name               : Resistance.2020.1080p.Bluray.X264.DTS-EVO.mkv
    Format                      : Matroska
    Format version              : Version 4
    File size                   : 10.8 GiB
    Duration                    : 2 h 1 min
    Overall bit rate mode       : Constant
    Overall bit rate            : 12.7 Mb/s
    Movie name                  : EVO
    Encoded date                : UTC 2020-07-09 21:53:58
    Writing application         : mkvmerge v30.1.0 ('Forever And More') 64-bit
    Writing library             : libebml v1.3.6 + libmatroska v1.4.9
    
    Video
    ID                          : 1
    Format                      : AVC
    Format/Info                 : Advanced Video Codec
    Format profile              : [email protected]
    Format settings             : CABAC / 3 Ref Frames
    Format settings, CABAC      : Yes
    Format settings, Reference  : 3 frames
    Format settings, GOP        : M=1, N=24
    Codec ID                    : V_MPEG4/ISO/AVC
    Duration                    : 2 h 1 min
    Bit rate mode               : Constant
    Bit rate                    : 11.2 Mb/s
    Nominal bit rate            : 12.0 Mb/s
    Width                       : 1 920 pixels
    Height                      : 800 pixels
    Display aspect ratio        : 2.40:1
    Frame rate mode             : Constant
    Frame rate                  : 23.976 (24000/1001) FPS
    Color space                 : YUV
    Chroma subsampling          : 4:2:0
    Bit depth                   : 8 bits
    Scan type                   : Progressive
    Bits/(Pixel*Frame)          : 0.305
    Stream size                 : 9.54 GiB (88%)
    Default                     : Yes
    Forced                      : No
    Color range                 : Limited
    Color primaries             : BT.709
    Transfer characteristics    : BT.709
    Matrix coefficients         : BT.709
    
    Audio
    ID                          : 2
    Format                      : DTS
    Format/Info                 : Digital Theater Systems
    Codec ID                    : A_DTS
    Duration                    : 2 h 1 min
    Bit rate mode               : Constant
    Bit rate                    : 1 509 kb/s
    Channel(s)                  : 6 channels
    Channel layout              : C L R Ls Rs LFE
    Sampling rate               : 48.0 kHz
    Frame rate                  : 93.750 FPS (512 SPF)
    Bit depth                   : 24 bits
    Compression mode            : Lossy
    Stream size                 : 1.28 GiB (12%)
    Language                    : English
    Default                     : Yes
    Forced                      : No
    
    Menu
    00:00:00.000                : en:1
    00:10:50.984                : en:2
    00:22:53.914                : en:3
    00:33:44.022                : en:4
    00:46:12.562                : en:5
    01:00:16.154                : en:6
    01:12:18.668                : en:7
    01:22:47.420                : en:8
    01:33:51.249                : en:9
    01:49:23.555                : en:10
    01:56:35.986                : en:11
    Download - Mirror 1:
    Download - Mirror 2:
     
  2. Loading...


Share This Page