Google Drive Resurrection.2022.1080p.WEB-DL.DD5.1.H.264-CMRG

Discussion in 'Web-DL / Webrip | 1080p' started by DDLbase, Aug 6, 2022.

  1. DDLbase

    DDLbase Administrator Staff Member

    [​IMG]

    Rating: 6.3/10 based on 747 user ratings

    Genres: Crime, Drama, Horror

    Margaret's life is in order. She is capable, disciplined, and successful. Everything is under control. That is, until David returns, carrying with him the horrors of Margaret's past.

    [​IMG]
    Code:
    General
    Unique ID                   : 183230215757797936481428548276925716543 (0x89D8DB1DDD56B8973DE6A876A827583F)
    Complete name               : Resurrection.2022.1080p.WEB-DL.DD5.1.H.264-CMRG.mkv
    Format                      : Matroska
    Format version              : Version 4
    File size                   : 5.16 GiB
    Duration                    : 1 h 44 min
    Overall bit rate            : 7 104 kb/s
    Encoded date                : UTC 2022-08-05 04:00:36
    Writing application         : mkvmerge v61.0.0 ('So') 64-bit
    Writing library             : libebml v1.4.2 + libmatroska v1.6.4
    
    Video
    ID                          : 1
    Format                      : AVC
    Format/Info                 : Advanced Video Codec
    Format profile              : [email protected]
    Format settings             : CABAC / 4 Ref Frames
    Format settings, CABAC      : Yes
    Format settings, Reference  : 4 frames
    Codec ID                    : V_MPEG4/ISO/AVC
    Duration                    : 1 h 44 min
    Bit rate                    : 6 717 kb/s
    Width                       : 1 796 pixels
    Height                      : 1 078 pixels
    Display aspect ratio        : 5:3
    Frame rate mode             : Constant
    Frame rate                  : 23.976 (24000/1001) FPS
    Color space                 : YUV
    Chroma subsampling          : 4:2:0
    Bit depth                   : 8 bits
    Scan type                   : Progressive
    Bits/(Pixel*Frame)          : 0.145
    Stream size                 : 4.88 GiB (95%)
    Language                    : English
    Default                     : Yes
    Forced                      : No
    Color range                 : Limited
    Color primaries             : BT.709
    Transfer characteristics    : BT.709
    Matrix coefficients         : BT.709
    
    Audio
    ID                          : 2
    Format                      : AC-3
    Format/Info                 : Audio Coding 3
    Commercial name             : Dolby Digital
    Codec ID                    : A_AC3
    Duration                    : 1 h 44 min
    Bit rate mode               : Constant
    Bit rate                    : 384 kb/s
    Channel(s)                  : 6 channels
    Channel layout              : L R C LFE Ls Rs
    Sampling rate               : 48.0 kHz
    Frame rate                  : 31.250 FPS (1536 SPF)
    Compression mode            : Lossy
    Stream size                 : 286 MiB (5%)
    Language                    : English
    Service kind                : Complete Main
    Default                     : Yes
    Forced                      : No
    
    Text #1
    ID                          : 3
    Format                      : UTF-8
    Codec ID                    : S_TEXT/UTF8
    Codec ID/Info               : UTF-8 Plain Text
    Duration                    : 1 h 41 min
    Bit rate                    : 49 b/s
    Count of elements           : 1460
    Stream size                 : 37.2 KiB (0%)
    Title                       : SDH
    Language                    : English
    Default                     : No
    Forced                      : No
    
    Text #2
    ID                          : 4
    Format                      : UTF-8
    Codec ID                    : S_TEXT/UTF8
    Codec ID/Info               : UTF-8 Plain Text
    Duration                    : 1 h 41 min
    Bit rate                    : 45 b/s
    Count of elements           : 1350
    Stream size                 : 34.3 KiB (0%)
    Language                    : English
    Default                     : No
    Forced                      : No
    
    Menu
    00:00:00.000                : Chapter 01
    00:10:29.629                : Chapter 02
    00:20:53.795                : Chapter 03
    00:32:02.339                : Chapter 04
    00:45:14.881                : Chapter 05
    00:52:20.557                : Chapter 06
    01:04:10.558                : Chapter 07
    01:13:34.831                : Chapter 08
    01:21:43.903                : Chapter 09
    01:39:49.072                : Chapter 10
    Download - Mirror 1:
    Download - Mirror 2:
     
  2. Loading...


Share This Page