Google Drive Richard.Jewell.2019.1080p.AMZN.WEB-DL.DDP5.1.H.264-NTG

Discussion in 'Web-DL / Webrip | 1080p' started by DDLbase, Mar 3, 2020.

  1. DDLbase

    DDLbase Administrator Staff Member

    [​IMG]

    Rating: 7.5/10 based on 18,765 user ratings

    Genres: Biography, Crime, Drama

    American security guard Richard Jewell saves thousands of lives from an exploding bomb at the 1996 Olympics, but is vilified by journalists and the press who falsely reported that he was a terrorist.

    [​IMG]
    Code:
    General
    Unique ID                   : 6439898930308881396389095671444097634 (0x4D84787FEC07CFA4DD3CFB0B7614A62)
    Complete name               : Richard.Jewell.2019.1080p.AMZN.WEB-DL.DDP5.1.H.264-NTG.mkv
    Format                      : Matroska
    Format version              : Version 4
    File size                   : 6.95 GiB
    Duration                    : 2 h 10 min
    Overall bit rate            : 7 605 kb/s
    Encoded date                : UTC 2020-03-03 08:34:52
    Writing application         : mkvmerge v21.0.0 ('Tardigrades Will Inherit The Earth') 64-bit
    Writing library             : libebml v1.3.5 + libmatroska v1.4.8
    
    Video
    ID                          : 1
    Format                      : AVC
    Format/Info                 : Advanced Video Codec
    Format profile              : [email protected]
    Format settings             : CABAC / 4 Ref Frames
    Format settings, CABAC      : Yes
    Format settings, Reference  : 4 frames
    Codec ID                    : V_MPEG4/ISO/AVC
    Duration                    : 2 h 10 min
    Bit rate mode               : Constant
    Bit rate                    : 6 963 kb/s
    Nominal bit rate            : 10 000 kb/s
    Width                       : 1 920 pixels
    Height                      : 800 pixels
    Display aspect ratio        : 2.40:1
    Frame rate mode             : Constant
    Frame rate                  : 23.976 (24000/1001) FPS
    Color space                 : YUV
    Chroma subsampling          : 4:2:0
    Bit depth                   : 8 bits
    Scan type                   : Progressive
    Bits/(Pixel*Frame)          : 0.189
    Stream size                 : 6.36 GiB (92%)
    Default                     : Yes
    Forced                      : No
    Color range                 : Limited
    Color primaries             : BT.709
    Transfer characteristics    : BT.709
    Matrix coefficients         : BT.709
    
    Audio
    ID                          : 2
    Format                      : E-AC-3
    Format/Info                 : Enhanced AC-3
    Commercial name             : Dolby Digital Plus
    Codec ID                    : A_EAC3
    Duration                    : 2 h 10 min
    Bit rate mode               : Constant
    Bit rate                    : 640 kb/s
    Channel(s)                  : 6 channels
    Channel layout              : L R C LFE Ls Rs
    Sampling rate               : 48.0 kHz
    Frame rate                  : 31.250 FPS (1536 SPF)
    Compression mode            : Lossy
    Stream size                 : 599 MiB (8%)
    Language                    : English
    Service kind                : Complete Main
    Default                     : Yes
    Forced                      : No
    
    Text #1
    ID                          : 3
    Format                      : UTF-8
    Codec ID                    : S_TEXT/UTF8
    Codec ID/Info               : UTF-8 Plain Text
    Duration                    : 2 h 3 min
    Bit rate                    : 80 b/s
    Count of elements           : 2470
    Stream size                 : 72.7 KiB (0%)
    Language                    : English
    Default                     : No
    Forced                      : No
    
    Text #2
    ID                          : 4
    Format                      : UTF-8
    Codec ID                    : S_TEXT/UTF8
    Codec ID/Info               : UTF-8 Plain Text
    Duration                    : 2 h 3 min
    Bit rate                    : 87 b/s
    Count of elements           : 2665
    Stream size                 : 79.7 KiB (0%)
    Title                       : SDH
    Language                    : English
    Default                     : No
    Forced                      : No
    
    Menu
    00:00:00.000                : en:Studio Logo
    00:00:22.000                : en:Title Sequence
    00:00:27.000                : en:Scene 3
    00:06:38.000                : en:Scene 4
    00:10:59.000                : en:Scene 5
    00:18:03.000                : en:Scene 6
    00:24:31.000                : en:Scene 7
    00:26:21.000                : en:Scene 8
    00:32:22.000                : en:Scene 9
    00:39:11.000                : en:Scene 10
    00:48:20.000                : en:Scene 11
    00:55:28.000                : en:Scene 12
    01:02:02.000                : en:Scene 13
    01:07:58.000                : en:Scene 14
    01:17:14.000                : en:Scene 15
    01:23:27.000                : en:Scene 16
    01:31:47.000                : en:Scene 17
    01:38:28.000                : en:Scene 18
    01:47:53.000                : en:Scene 19
    01:55:28.000                : en:Scene 20
    01:58:55.000                : en:Scene 21
    02:03:26.000                : en:Scene 22
    02:04:52.000                : en:End Credits
    Download:
     
  2. Loading...


Share This Page