Google Drive Ride.Like.a.Girl.2019.1080p.BluRay.REMUX.AVC.DTS-HD.MA.5.1-FGT

Discussion in 'BD REMUX | 1080p' started by DDLbase, Jan 24, 2020.

  1. DDLbase

    DDLbase Administrator Staff Member

    [​IMG]

    Title: Ride Like a Girl (2019)
    Genres: Biography, Drama, Sport
    Plot: The story of Michelle Payne, the first female jockey to win the Melbourne Cup.
    Director: Rachel Griffiths
    Writer: Andrew Knight, Elise McCredie
    Actors: Teresa Palmer, Sam Neill, Sullivan Stapleton
    Rating: 6.8/10
    Votes: 891
    Rated: N/A
    Runtime: 98 min
    Release Date: 18 September 2019

    [​IMG]

    Code:
    General
    Complete name                  : Ride.Like.a.Girl.2019.1080p.BluRay.REMUX.AVC.DTS-HD.MA.5.1-FGT.mkv
    Format                        : Matroska
    Format version                : Version 4
    File size                      : 27.9 GiB
    Duration                      : 1 h 38 min
    Overall bit rate mode          : Variable
    Overall bit rate              : 40.7 Mb/s
    Movie name                    : Ride.Like.a.Girl.2019.1080p.BluRay.REMUX.AVC.DTS-HD.MA.5.1-FGT
    Encoded date                  : UTC 2020-01-16 10:02:53
    Writing application            : mkvmerge v42.0.0 ('Overtime') 64-bit
    Writing library                : libebml v1.3.10 + libmatroska v1.5.2
    Cover                          : Yes
    Attachments                    : small_cover.jpg / small_cover_land.jpg / cover.jpg / cover_land.jpg
    
    Video
    ID                            : 1
    Format                        : AVC
    Format/Info                    : Advanced Video Codec
    Format profile                : [email protected]
    Format settings                : CABAC / 4 Ref Frames
    Format settings, CABAC        : Yes
    Format settings, Reference fra : 4 frames
    Codec ID                      : V_MPEG4/ISO/AVC
    Duration                      : 1 h 38 min
    Bit rate mode                  : Variable
    Bit rate                      : 35.1 Mb/s
    Maximum bit rate              : 38.0 Mb/s
    Width                          : 1 920 pixels
    Height                        : 1 080 pixels
    Display aspect ratio          : 16:9
    Frame rate mode                : Constant
    Frame rate                    : 24.000 FPS
    Color space                    : YUV
    Chroma subsampling            : 4:2:0
    Bit depth                      : 8 bits
    Scan type                      : Progressive
    Bits/(Pixel*Frame)            : 0.705
    Stream size                    : 24.1 GiB (86%)
    Title                          : Ride.Like.a.Girl.2019.1080p.BluRay.REMUX.AVC.DTS-HD.MA.5.1-FGT
    Language                      : English
    Default                        : No
    Forced                        : No
    
    Audio #1
    ID                            : 2
    Format                        : DTS XLL
    Format/Info                    : Digital Theater Systems
    Commercial name                : DTS-HD Master Audio
    Codec ID                      : A_DTS
    Duration                      : 1 h 38 min
    Bit rate mode                  : Variable
    Bit rate                      : 4 239 kb/s
    Channel(s)                    : 6 channels
    Channel layout                : C L R Ls Rs LFE
    Sampling rate                  : 48.0 kHz
    Frame rate                    : 93.750 FPS (512 SPF)
    Bit depth                      : 24 bits
    Compression mode              : Lossless
    Stream size                    : 2.91 GiB (10%)
    Title                          : Ride.Like.a.Girl.2019.1080p.BluRay.REMUX.AVC.DTS-HD.MA.5.1-FGT
    Language                      : English
    Default                        : Yes
    Forced                        : No
    
    Audio #2
    ID                            : 3
    Format                        : DTS XLL
    Format/Info                    : Digital Theater Systems
    Commercial name                : DTS-HD Master Audio
    Codec ID                      : A_DTS
    Duration                      : 1 h 38 min
    Bit rate mode                  : Variable
    Bit rate                      : 1 347 kb/s
    Channel(s)                    : 2 channels
    Channel layout                : L R
    Sampling rate                  : 48.0 kHz
    Frame rate                    : 93.750 FPS (512 SPF)
    Bit depth                      : 24 bits
    Compression mode              : Lossless
    Stream size                    : 945 MiB (3%)
    Title                          : Ride.Like.a.Girl.2019.1080p.BluRay.REMUX.AVC.DTS-HD.MA.5.1-FGT
    Language                      : English
    Default                        : No
    Forced                        : No
    
    Text #1
    ID                            : 4
    Format                        : UTF-8
    Codec ID                      : S_TEXT/UTF8
    Codec ID/Info                  : UTF-8 Plain Text
    Duration                      : 1 h 31 min
    Bit rate                      : 61 b/s
    Count of elements              : 1322
    Stream size                    : 41.0 KiB (0%)
    Title                          : English-SRT
    Language                      : English
    Default                        : Yes
    Forced                        : No
    
    Text #2
    ID                            : 5
    Format                        : PGS
    Muxing mode                    : zlib
    Codec ID                      : S_HDMV/PGS
    Codec ID/Info                  : Picture based subtitle format used on BDs/HD-DVDs
    Duration                      : 1 h 32 min
    Bit rate                      : 51.9 kb/s
    Count of elements              : 2884
    Stream size                    : 34.4 MiB (0%)
    Title                          : English-PGS
    Language                      : English
    Default                        : No
    Forced                        : No
    
    Menu
    00:00:00.000                  : en:Chapter 01
    00:08:30.166                  : en:Chapter 02
    00:16:49.083                  : en:Chapter 03
    00:25:05.833                  : en:Chapter 04
    00:31:35.291                  : en:Chapter 05
    00:38:46.750                  : en:Chapter 06
    00:52:04.708                  : en:Chapter 07
    01:02:27.208                  : en:Chapter 08
    01:10:18.208                  : en:Chapter 09
    01:16:11.583                  : en:Chapter 10
    01:23:10.333                  : en:Chapter 11
    01:32:58.500                  : en:Chapter 12
    Download:
     
  2. Loading...


Share This Page