Google Drive Road.Trip.Beer.Pong.2009.1080p.AMZN.WEBRip.DDP5.1.x264-monkee

Discussion in 'Web-DL / Webrip | 1080p' started by DDLbase, Jun 5, 2020.

  1. DDLbase

    DDLbase Administrator Staff Member

    [​IMG]

    Rating: 4.9/10 based on 11,128 user ratings

    Genre: Comedy

    Three college roommates join a bus full of gorgeous models and travel the country to compete in a National Beer Pong Championship. With a busload of attractive women who knows how much fun they could have?

    [​IMG]
    Code:
    General
    Unique ID                   : 207842886105179547315504708442219446956 (0x9C5D15746D47951585588B31588D82AC)
    Complete name               : Road.Trip.Beer.Pong.2009.1080p.AMZN.WEBRip.DDP5.1.x264-monkee.mkv
    Format                      : Matroska
    Format version              : Version 4
    File size                   : 9.09 GiB
    Duration                    : 1 h 35 min
    Overall bit rate mode       : Variable
    Overall bit rate            : 13.7 Mb/s
    Encoded date                : UTC 2017-08-12 05:50:08
    Writing application         : mkvmerge v13.0.0 ('The Juggler') 64bit
    Writing library             : libebml v1.3.4 + libmatroska v1.4.5
    
    Video
    ID                          : 1
    Format                      : AVC
    Format/Info                 : Advanced Video Codec
    Format profile              : [email protected]
    Format settings             : CABAC / 4 Ref Frames
    Format settings, CABAC      : Yes
    Format settings, Reference  : 4 frames
    Codec ID                    : V_MPEG4/ISO/AVC
    Duration                    : 1 h 35 min
    Bit rate mode               : Variable
    Bit rate                    : 13.0 Mb/s
    Maximum bit rate            : 15.0 Mb/s
    Width                       : 1 920 pixels
    Height                      : 1 080 pixels
    Display aspect ratio        : 16:9
    Frame rate mode             : Constant
    Frame rate                  : 23.976 (24000/1001) FPS
    Color space                 : YUV
    Chroma subsampling          : 4:2:0
    Bit depth                   : 8 bits
    Scan type                   : Progressive
    Bits/(Pixel*Frame)          : 0.262
    Stream size                 : 8.67 GiB (95%)
    Default                     : Yes
    Forced                      : No
    Color range                 : Limited
    Color primaries             : BT.709
    Transfer characteristics    : BT.709
    Matrix coefficients         : BT.709
    
    Audio
    ID                          : 2
    Format                      : E-AC-3
    Format/Info                 : Enhanced AC-3
    Commercial name             : Dolby Digital Plus
    Codec ID                    : A_EAC3
    Duration                    : 1 h 35 min
    Bit rate mode               : Constant
    Bit rate                    : 640 kb/s
    Channel(s)                  : 6 channels
    Channel layout              : L R C LFE Ls Rs
    Sampling rate               : 48.0 kHz
    Frame rate                  : 31.250 FPS (1536 SPF)
    Compression mode            : Lossy
    Stream size                 : 437 MiB (5%)
    Language                    : English
    Service kind                : Complete Main
    Default                     : Yes
    Forced                      : No
    
    Text
    ID                          : 3
    Format                      : UTF-8
    Codec ID                    : S_TEXT/UTF8
    Codec ID/Info               : UTF-8 Plain Text
    Duration                    : 1 h 34 min
    Bit rate                    : 76 b/s
    Count of elements           : 1760
    Stream size                 : 52.5 KiB (0%)
    Language                    : English
    Default                     : No
    Forced                      : No
    Download:
     
  2. Loading...


Share This Page