Google Drive Rogue.Agent.2022.2160p.WEB-DL.DD5.1.HDR.H.265-EVO

Discussion in 'Web-DL / Webrip | 4K' started by DDLbase, Aug 13, 2022.

  1. DDLbase

    DDLbase Administrator Staff Member

    [​IMG]

    Rating: 6.5/10 based on 739 user ratings

    Genre: Thriller

    The extraordinary and chilling story of career conman Robert Freegard who masqueraded as an MI5 agent and fooled people into going into hiding, and the woman who fell for him, and then brought him down.

    [​IMG]
    Code:
    General
    Unique ID                   : 315976284874806020241070487443535480923 (0xEDB6D1A1D5DC04709926C152C8B2C85B)
    Complete name               : Rogue.Agent.2022.2160p.WEB-DL.DD5.1.HDR.H.265-EVO.mkv
    Format                      : Matroska
    Format version              : Version 4
    File size                   : 19.8 GiB
    Duration                    : 1 h 56 min
    Overall bit rate            : 24.4 Mb/s
    Encoded date                : UTC 2022-08-12 04:11:54
    Writing application         : mkvmerge v63.0.0 ('Everything') 64-bit
    Writing library             : libebml v1.4.2 + libmatroska v1.6.4
    
    Video
    ID                          : 1
    Format                      : HEVC
    Format/Info                 : High Efficiency Video Coding
    Format profile              : Main [email protected]@High
    HDR format                  : SMPTE ST 2086, HDR10 compatible
    Codec ID                    : V_MPEGH/ISO/HEVC
    Duration                    : 1 h 56 min
    Bit rate                    : 24.0 Mb/s
    Width                       : 3 832 pixels
    Height                      : 1 600 pixels
    Display aspect ratio        : 2.40:1
    Frame rate mode             : Constant
    Frame rate                  : 24.000 FPS
    Color space                 : YUV
    Chroma subsampling          : 4:2:0 (Type 2)
    Bit depth                   : 10 bits
    Bits/(Pixel*Frame)          : 0.163
    Stream size                 : 19.5 GiB (98%)
    Default                     : Yes
    Forced                      : No
    Color range                 : Limited
    Color primaries             : BT.2020
    Transfer characteristics    : PQ
    Matrix coefficients         : BT.2020 non-constant
    Mastering display color pri : BT.2020
    Mastering display luminance : min: 0.0050 cd/m2, max: 1000 cd/m2
    Maximum Content Light Level : 1770 cd/m2
    Maximum Frame-Average Light : 837 cd/m2
    
    Audio
    ID                          : 2
    Format                      : AC-3
    Format/Info                 : Audio Coding 3
    Commercial name             : Dolby Digital
    Codec ID                    : A_AC3
    Duration                    : 1 h 56 min
    Bit rate mode               : Constant
    Bit rate                    : 384 kb/s
    Channel(s)                  : 6 channels
    Channel layout              : L R C LFE Ls Rs
    Sampling rate               : 48.0 kHz
    Frame rate                  : 31.250 FPS (1536 SPF)
    Compression mode            : Lossy
    Stream size                 : 319 MiB (2%)
    Language                    : English
    Service kind                : Complete Main
    Default                     : Yes
    Forced                      : No
    Download - Mirror 1:
    Download - Mirror 2:
     
  2. Loading...


Share This Page