Google Drive Rootwood.2019.1080p.WEB-DL.H264.AC3-EVO

Discussion in 'Web-DL / Webrip | 1080p' started by DDLbase, Dec 6, 2019.

  1. DDLbase

    DDLbase Administrator Staff Member

    [​IMG]
    [​IMG]
    Code:
    General
    Unique ID                   : 206694160139362691325992904884516933235 (0x9B7FD8E457CBA089202E68626735CE73)
    Complete name               : Rootwood.2019.1080p.WEB-DL.H264.AC3-EVO.mkv
    Format                      : Matroska
    Format version              : Version 4 / Version 2
    File size                   : 2.84 GiB
    Duration                    : 1 h 22 min
    Overall bit rate            : 4 943 kb/s
    Encoded date                : UTC 2019-11-25 00:14:28
    Writing application         : mkvmerge v35.0.0 ('All The Love In The World') 64-bit
    Writing library             : libebml v1.3.9 + libmatroska v1.5.2
    
    Video
    ID                          : 2
    Format                      : AVC
    Format/Info                 : Advanced Video Codec
    Format profile              : [email protected]
    Format settings, CABAC      : Yes
    Format settings, ReFrames   : 5 frames
    Codec ID                    : V_MPEG4/ISO/AVC
    Duration                    : 1 h 22 min
    Bit rate                    : 4 558 kb/s
    Width                       : 1 920 pixels
    Height                      : 796 pixels
    Display aspect ratio        : 2.40:1
    Frame rate mode             : Constant
    Frame rate                  : 23.976 (24000/1001) FPS
    Color space                 : YUV
    Chroma subsampling          : 4:2:0
    Bit depth                   : 8 bits
    Scan type                   : Progressive
    Bits/(Pixel*Frame)          : 0.124
    Stream size                 : 2.62 GiB (92%)
    Language                    : English
    Default                     : Yes
    Forced                      : No
    Color range                 : Limited
    Color primaries             : BT.709
    Transfer characteristics    : BT.709
    Matrix coefficients         : BT.709
    
    Audio
    ID                          : 1
    Format                      : AC-3
    Format/Info                 : Audio Coding 3
    Format settings, Endianness : Big
    Codec ID                    : A_AC3
    Duration                    : 1 h 22 min
    Bit rate mode               : Constant
    Bit rate                    : 384 kb/s
    Channel(s)                  : 6 channels
    Channel positions           : Front: L C R, Side: L R, LFE
    Sampling rate               : 48.0 kHz
    Frame rate                  : 31.250 FPS (1536 spf)
    Bit depth                   : 16 bits
    Compression mode            : Lossy
    Delay relative to video     : -42 ms
    Stream size                 : 226 MiB (8%)
    Language                    : English
    Service kind                : Complete Main
    Default                     : Yes
    Forced                      : No
    
    Menu
    00:00:00.000                : en:Chapter 1
    00:15:52.494                : en:Chapter 2
    00:30:53.936                : en:Chapter 3
    00:49:04.818                : en:Chapter 4
    01:02:22.866                : en:Chapter 5
    01:18:06.225                : en:Chapter 6
    Download:
     
  2. Loading...


Share This Page