Google Drive Rubikon.2022.1080p.AMZN.WEB-DL.DDP5.1.H.264-MARK

Discussion in 'Web-DL / Webrip | 1080p' started by DDLbase, Sep 4, 2022.

  1. DDLbase

    DDLbase Administrator Staff Member

    [​IMG]

    Rating: 4.8/10 based on 1,543 user ratings

    Genres: Drama, Sci-Fi

    Following a catastrophe on Earth, the planet is covered in a toxic fog. The crew in the space station, must decide whether to risk their lives to get home and search for survivors, or stay safe in the station's "algae symbiosis system".

    [​IMG]
    Code:
    General
    Unique ID                   : 9672758177497026995696104082833212315 (0x746E7CC59A34C62D39F5A3156E5039B)
    Complete name               : Rubikon.2022.1080p.AMZN.WEB-DL.DDP5.1.H.264-MARK.mkv
    Format                      : Matroska
    Format version              : Version 4
    File size                   : 7.77 GiB
    Duration                    : 1 h 49 min
    Overall bit rate            : 10.1 Mb/s
    Encoded date                : UTC 2022-09-02 06:55:07
    Writing application         : mkvmerge v70.0.0 ('Caught A Lite Sneeze') 32-bit
    Writing library             : libebml v1.4.2 + libmatroska v1.6.4
    
    Video
    ID                          : 1
    Format                      : AVC
    Format/Info                 : Advanced Video Codec
    Format profile              : [email protected]
    Format settings             : CABAC / 4 Ref Frames
    Format settings, CABAC      : Yes
    Format settings, Reference  : 4 frames
    Codec ID                    : V_MPEG4/ISO/AVC
    Duration                    : 1 h 49 min
    Bit rate mode               : Constant
    Bit rate                    : 9 492 kb/s
    Nominal bit rate            : 10 000 kb/s
    Width                       : 1 920 pixels
    Height                      : 816 pixels
    Display aspect ratio        : 2.35:1
    Frame rate mode             : Constant
    Frame rate                  : 24.000 FPS
    Color space                 : YUV
    Chroma subsampling          : 4:2:0
    Bit depth                   : 8 bits
    Scan type                   : Progressive
    Bits/(Pixel*Frame)          : 0.252
    Stream size                 : 7.28 GiB (94%)
    Language                    : English
    Default                     : Yes
    Forced                      : No
    Color range                 : Limited
    Color primaries             : BT.709
    Transfer characteristics    : BT.709
    Matrix coefficients         : BT.709
    
    Audio
    ID                          : 2
    Format                      : E-AC-3
    Format/Info                 : Enhanced AC-3
    Commercial name             : Dolby Digital Plus
    Codec ID                    : A_EAC3
    Duration                    : 1 h 49 min
    Bit rate mode               : Constant
    Bit rate                    : 640 kb/s
    Channel(s)                  : 6 channels
    Channel layout              : L R C LFE Ls Rs
    Sampling rate               : 48.0 kHz
    Frame rate                  : 31.250 FPS (1536 SPF)
    Compression mode            : Lossy
    Stream size                 : 503 MiB (6%)
    Language                    : English
    Service kind                : Complete Main
    Default                     : Yes
    Forced                      : No
    
    Text
    ID                          : 3
    Format                      : UTF-8
    Codec ID                    : S_TEXT/UTF8
    Codec ID/Info               : UTF-8 Plain Text
    Duration                    : 1 h 49 min
    Bit rate                    : 50 b/s
    Frame rate                  : 0.281 FPS
    Count of elements           : 1848
    Stream size                 : 40.7 KiB (0%)
    Title                       : SDH
    Language                    : English
    Default                     : No
    Forced                      : No
    Download - Mirror 1:
    Download - Mirror 2:
     
  2. Loading...


Share This Page