Google Drive Saw.2004.1080p.BluRay.DTS-ES.6.1.x264-LEGi0N

Discussion in 'BDRip | 720p/1080p' started by DDLbase, Oct 18, 2020.

  1. DDLbase

    DDLbase Administrator Staff Member

    [​IMG]

    Rating: 7.6/10 based on 374,000 user ratings

    Genres: Horror, Mystery

    Two strangers awaken in a room with no recollection of how they got there, and soon discover they’re pawns in a deadly game perpetrated by a notorious serial killer.

    [​IMG]
    Code:
    General
    Complete name               : Saw.2004.1080p.BluRay.DTS-ES.6.1.x264-LEGi0N.mkv
    Format                      : Matroska
    Format version              : Version 4
    File size                   : 12.7 GiB
    Duration                    : 1 h 42 min
    Overall bit rate            : 17.6 Mb/s
    Encoded date                : UTC 2015-07-31 06:15:35
    Writing application         : mkvmerge v8.2.0 ('World of Adventure') 64bit
    Writing library             : libebml v1.3.1 + libmatroska v1.4.2
    
    Video
    ID                          : 1
    Format                      : AVC
    Format/Info                 : Advanced Video Codec
    Format profile              : [email protected]
    Format settings             : CABAC / 4 Ref Frames
    Format settings, CABAC      : Yes
    Format settings, Reference  : 4 frames
    Codec ID                    : V_MPEG4/ISO/AVC
    Duration                    : 1 h 42 min
    Bit rate                    : 16.1 Mb/s
    Width                       : 1 920 pixels
    Height                      : 1 080 pixels
    Display aspect ratio        : 16:9
    Frame rate mode             : Constant
    Frame rate                  : 23.976 (24000/1001) FPS
    Color space                 : YUV
    Chroma subsampling          : 4:2:0
    Bit depth                   : 8 bits
    Scan type                   : Progressive
    Bits/(Pixel*Frame)          : 0.324
    Stream size                 : 11.6 GiB (91%)
    Writing library             : x264 core 146 r2538 121396c
    Encoding settings           : cabac=1 / ref=4 / deblock=1:-2:-2 / analyse=0x3:0x113 / me=umh / subme=10 / psy=1 / psy_rd=1.10:0.00 / mixed_ref=1 / me_range=48 / chroma_me=1 / trellis=2 / 8x8dct=1 / cqm=0 / deadzone=21,11 / fast_pskip=1 / chroma_qp_offset=-2 / threads=16 / lookahead_threads=2 / sliced_threads=0 / nr=0 / decimate=1 / interlaced=0 / bluray_compat=0 / constrained_intra=0 / bframes=7 / b_pyramid=2 / b_adapt=2 / b_bias=0 / direct=1 / weightb=1 / open_gop=0 / weightp=2 / keyint=240 / keyint_min=23 / scenecut=40 / intra_refresh=0 / rc_lookahead=125 / rc=crf / mbtree=1 / crf=18.0 / qcomp=0.60 / qpmin=0 / qpmax=69 / qpstep=4 / vbv_maxrate=30000 / vbv_bufsize=38000 / crf_max=0.0 / nal_hrd=none / filler=0 / ip_ratio=1.40 / aq=3:0.85
    Language                    : English
    Default                     : Yes
    Forced                      : No
    Color range                 : Limited
    Color primaries             : BT.709
    Transfer characteristics    : BT.709
    Matrix coefficients         : BT.709
    
    Audio
    ID                          : 2
    Format                      : DTS ES XXCH
    Format/Info                 : Digital Theater Systems
    Commercial name             : DTS-ES Discrete
    Codec ID                    : A_DTS
    Duration                    : 1 h 42 min
    Bit rate mode               : Constant
    Bit rate                    : 1 509 kb/s
    Channel(s)                  : 6 channels
    Channel(s)_Original         : 7 channels
    ChannelLayout_Original      : C L R Ls Rs Cs LFE
    Sampling rate               : 48.0 kHz
    Frame rate                  : 93.750 FPS (512 SPF)
    Bit depth                   : 24 bits
    Compression mode            : Lossy
    Stream size                 : 1.08 GiB (9%)
    Language                    : English
    Default                     : Yes
    Forced                      : No
    
    Text #1
    ID                          : 3
    Format                      : UTF-8
    Codec ID                    : S_TEXT/UTF8
    Codec ID/Info               : UTF-8 Plain Text
    Duration                    : 1 h 37 min
    Bit rate                    : 40 b/s
    Count of elements           : 789
    Stream size                 : 28.7 KiB (0%)
    Language                    : English
    Default                     : Yes
    Forced                      : No
    
    Text #2
    ID                          : 4
    Format                      : UTF-8
    Codec ID                    : S_TEXT/UTF8
    Codec ID/Info               : UTF-8 Plain Text
    Duration                    : 1 h 37 min
    Bit rate                    : 41 b/s
    Count of elements           : 805
    Stream size                 : 29.9 KiB (0%)
    Language                    : Spanish
    Default                     : No
    Forced                      : No
    
    Menu
    00:00:00.000                : en:00:00:00.000
    00:06:19.879                : en:00:06:19.879
    00:12:10.563                : en:00:12:10.563
    00:18:20.683                : en:00:18:20.683
    00:23:46.091                : en:00:23:46.091
    00:29:50.372                : en:00:29:50.372
    00:37:10.562                : en:00:37:10.562
    00:44:07.311                : en:00:44:07.311
    00:52:25.976                : en:00:52:25.976
    01:04:07.302                : en:01:04:07.302
    01:17:34.608                : en:01:17:34.608
    01:22:51.550                : en:01:22:51.550
    01:27:19.234                : en:01:27:19.234
    01:32:46.478                : en:01:32:46.478
    Download:
     
  2. Loading...


Share This Page