Google Drive Scare.Package.2019.1080p.AMZN.WEB-DL.DDP2.0.H.264-NTG

Discussion in 'Web-DL / Webrip | 1080p' started by DDLbase, Jun 19, 2020.

  1. DDLbase

    DDLbase Administrator Staff Member

    [​IMG]

    Rating: 6.2/10 based on 239 user ratings

    Genres: Comedy, Horror

    Chad, the owner of Rad Chad’s Horror Emporium, recounts a series of bone-chilling, blood-splattered tales to illustrate the rules of the horror genre to his newest employee.

    [​IMG]
    Code:
    General
    Unique ID                   : 199933910947419653564774690300898805404 (0x9669DEDF96F913233125F80D4573869C)
    Complete name               : Scare.Package.2019.1080p.AMZN.WEB-DL.DDP2.0.H.264-NTG.mkv
    Format                      : Matroska
    Format version              : Version 4
    File size                   : 7.35 GiB
    Duration                    : 1 h 47 min
    Overall bit rate mode       : Constant
    Overall bit rate            : 9 767 kb/s
    Encoded date                : UTC 2020-06-18 17:57:26
    Writing application         : mkvmerge v21.0.0 ('Tardigrades Will Inherit The Earth') 64-bit
    Writing library             : libebml v1.3.5 + libmatroska v1.4.8
    
    Video
    ID                          : 1
    Format                      : AVC
    Format/Info                 : Advanced Video Codec
    Format profile              : [email protected]
    Format settings             : CABAC / 4 Ref Frames
    Format settings, CABAC      : Yes
    Format settings, Reference  : 4 frames
    Codec ID                    : V_MPEG4/ISO/AVC
    Duration                    : 1 h 47 min
    Bit rate mode               : Constant
    Bit rate                    : 10 000 kb/s
    Width                       : 1 920 pixels
    Height                      : 1 080 pixels
    Display aspect ratio        : 16:9
    Frame rate mode             : Constant
    Frame rate                  : 23.976 (24000/1001) FPS
    Color space                 : YUV
    Chroma subsampling          : 4:2:0
    Bit depth                   : 8 bits
    Scan type                   : Progressive
    Bits/(Pixel*Frame)          : 0.201
    Stream size                 : 7.18 GiB (98%)
    Default                     : Yes
    Forced                      : No
    Color range                 : Limited
    Color primaries             : BT.709
    Transfer characteristics    : BT.709
    Matrix coefficients         : BT.709
    
    Audio
    ID                          : 2
    Format                      : E-AC-3
    Format/Info                 : Enhanced AC-3
    Commercial name             : Dolby Digital Plus
    Codec ID                    : A_EAC3
    Duration                    : 1 h 47 min
    Bit rate mode               : Constant
    Bit rate                    : 224 kb/s
    Channel(s)                  : 2 channels
    Channel layout              : L R
    Sampling rate               : 48.0 kHz
    Frame rate                  : 31.250 FPS (1536 SPF)
    Compression mode            : Lossy
    Stream size                 : 173 MiB (2%)
    Language                    : English
    Service kind                : Complete Main
    Default                     : Yes
    Forced                      : No
    Download - Mirror 1:
    Download - Mirror 2:
     
  2. Loading...

    Similar Threads - Scare Package 2019
    1. DDLbase
      Replies:
      0
      Views:
      774

Share This Page