MEGA Scream.1996.Hybrid.1080p.Blu-ray.Remux.AVC.DTS-HD.MA.5.1-LEGi0N

Discussion in 'BD REMUX | 1080p' started by DDLbase, Aug 12, 2019.

  1. DDLbase

    DDLbase Administrator Staff Member

    [​IMG]
    Scream (1996)

    Director: Wes Craven
    Stars: Drew Barrymore, Roger Jackson, Kevin Patrick Walls, David Booth

    Runtime: 111 min (taken from IMDb)
    Genre: Horror, Mystery

    Rating: 7.2/10* (may differ)
    Votes: 262,374 (may differ)

    Release Date: 20 Dec 1996 (taken from IMDb)
    Viewer Rating (TV/MPAA): R (taken from IMDb)

    Summary: A year after the murder of her mother, a teenage girl is terrorized by a new killer, who targets the girl and her friends by using horror films as part of a deadly game.

    Code:
    General
    Unique ID : 233355179594821384846346699567915840370 (0xAF8E92A369322335B7A84A8D0EDFB372)
    Complete name : Scream.1996.Hybrid.1080p.Blu-ray.Remux.AVC.DTS-HD.MA.5.1-LEGi0N.mkv
    Format : Matroska
    Format version : Version 4 / Version 2
    File size : 27.7 GiB
    Duration : 1h 50mn
    Overall bit rate mode : Variable
    Overall bit rate : 35.7 Mbps
    Encoded date : UTC 2016-04-29 04:00:12
    Writing application : mkvmerge v9.1.0 ('Little Earthquakes') 64bit
    Writing library : libebml v1.3.3 + libmatroska v1.4.4
    
    Video
    ID : 1
    Format : AVC
    Format/Info : Advanced Video Codec
    Format profile : [email protected]
    Format settings, CABAC : Yes
    Format settings, ReFrames : 4 frames
    Format settings, GOP : M=3, N=24
    Codec ID : V_MPEG4/ISO/AVC
    Duration : 1h 50mn
    Bit rate mode : Variable
    Bit rate : 29.9 Mbps
    Maximum bit rate : 34.0 Mbps
    Width : 1 920 pixels
    Height : 1 080 pixels
    Display aspect ratio : 16:9
    Frame rate mode : Constant
    Frame rate : 23.976 (24000/1001) fps
    Standard : NTSC
    Color space : YUV
    Chroma subsampling : 4:2:0
    Bit depth : 8 bits
    Scan type : Progressive
    Bits/(Pixel*Frame) : 0.602
    Stream size : 23.2 GiB (84%)
    Title : MPEG-4 AVC Video / 29929 kbps / 1080p / 23.976 fps / 16:9 / High Profile 4.1
    Language : English
    Default : Yes
    Forced : No
    Color range : Limited
    Color primaries : BT.709
    Transfer characteristics : BT.709
    Matrix coefficients : BT.709
    
    Audio #1
    ID : 2
    Format : DTS
    Format/Info : Digital Theater Systems
    Format profile : MA / Core
    Mode : 16
    Format settings, Endianness : Big
    Codec ID : A_DTS
    Duration : 1h 50mn
    Bit rate mode : Variable / Constant
    Bit rate : 3 992 Kbps / 1 509 Kbps
    Channel(s) : 6 channels
    Channel positions : Front: L C R, Side: L R, LFE
    Sampling rate : 48.0 KHz
    Frame rate : 93.750 fps (512 spf)
    Bit depth : 24 bits
    Compression mode : Lossless / Lossy
    Stream size : 3.09 GiB (11%)
    Title : DTS-HD Master Audio / English / 3992 kbps / 5.1 / 48 kHz / 3992 kbps / 24-bit (DTS Core: 5.1 / 48 kHz / 1509 kbps / 24-bit)
    Language : English
    Default : Yes
    Forced : No
    
    Audio #2
    ID : 3
    Format : DTS
    Format/Info : Digital Theater Systems
    Format profile : MA / Core
    Mode : 16
    Format settings, Endianness : Big
    Codec ID : A_DTS
    Duration : 1h 50mn
    Bit rate mode : Variable / Constant
    Bit rate : 1 536 Kbps / 1 509 Kbps
    Channel(s) : 2 channels
    Channel positions : Front: L R
    Sampling rate : 48.0 KHz
    Frame rate : 93.750 fps (512 spf)
    Bit depth : 16 bits
    Compression mode : Lossless / Lossy
    Stream size : 1.21 GiB (4%)
    Title : Commentary with Director Wes Craven, and Writer Kevin Williamson
    Language : English
    Default : No
    Forced : No
    
    Text #1
    ID : 4
    Format : PGS
    Codec ID : S_HDMV/PGS
    Codec ID/Info : Picture based subtitle format used on BDs/HD-DVDs
    Duration : 1h 43mn
    Bit rate : 58.5 Kbps
    Count of elements : 2817
    Stream size : 43.3 MiB (0%)
    Title : English
    Language : English
    Default : No
    Forced : No
    
    Text #2
    ID : 5
    Format : PGS
    Codec ID : S_HDMV/PGS
    Codec ID/Info : Picture based subtitle format used on BDs/HD-DVDs
    Duration : 1h 50mn
    Bit rate : 66.7 Kbps
    Count of elements : 3463
    Stream size : 52.8 MiB (0%)
    Title : English SDH
    Language : English
    Default : No
    Forced : No
    
    Text #3
    ID : 6
    Format : PGS
    Codec ID : S_HDMV/PGS
    Codec ID/Info : Picture based subtitle format used on BDs/HD-DVDs
    Duration : 1h 43mn
    Bit rate : 40.1 Kbps
    Count of elements : 2439
    Stream size : 29.7 MiB (0%)
    Title : Spanish(Latin-American)
    Language : Spanish
    Default : No
    Forced : No
    
    Text #4
    ID : 7
    Format : PGS
    Codec ID : S_HDMV/PGS
    Codec ID/Info : Picture based subtitle format used on BDs/HD-DVDs
    Duration : 1h 43mn
    Bit rate : 28.5 Kbps
    Count of elements : 2034
    Stream size : 21.1 MiB (0%)
    Title : German
    Language : German
    Default : No
    Forced : No
    
    Text #5
    ID : 8
    Format : PGS
    Codec ID : S_HDMV/PGS
    Codec ID/Info : Picture based subtitle format used on BDs/HD-DVDs
    Duration : 1h 50mn
    Bit rate : 49.8 Kbps
    Count of elements : 2250
    Stream size : 39.3 MiB (0%)
    Title : German 2
    Language : German
    Default : No
    Forced : No
    
    Text #6
    ID : 9
    Format : PGS
    Codec ID : S_HDMV/PGS
    Codec ID/Info : Picture based subtitle format used on BDs/HD-DVDs
    Duration : 1h 43mn
    Bit rate : 24.5 Kbps
    Count of elements : 2142
    Stream size : 18.2 MiB (0%)
    Title : Russian
    Language : Russian
    Default : No
    Forced : No
    
    Menu
    00:00:00.000 : en:Opening Credits
    00:04:21.719 : en:Wrong Number
    00:12:58.778 : en:It's Only Billy
    00:17:12.322 : en:Sidney's Turn
    00:24:48.487 : en:Questions
    00:30:39.838 : en:Story With A Punch
    00:38:23.301 : en:A Call For Sidney
    00:45:23.429 : en:Confrontation
    00:53:21.698 : en:Someone's Knocking
    01:01:04.744 : en:Beer Bust
    01:07:45.061 : en:The Rules
    01:15:57.511 : en:Not The One
    01:22:59.975 : en:No Help Here
    01:27:28.159 : en:Final Setup
    01:30:52.155 : en:Thwarted Plan
    01:37:52.741 : en:Face-Off
    Download:
     
  2. Loading...


Share This Page