Google Drive Scream.1996.UNCUT.1080p.BluRay.x264.DTS-CtrlHD

Discussion in 'BDRip | 720p/1080p' started by DDLbase, Feb 16, 2021.

  1. DDLbase

    DDLbase Administrator Staff Member

    [​IMG]

    Rating: 7.3/10 based on 288,364 user ratings

    Genres: Horror, Mystery

    A year after the murder of her mother, a teenage girl is terrorized by a new killer, who targets the girl and her friends by using horror films as part of a deadly game.

    [​IMG]
    Code:
    General
    Unique ID                   : 2481465253323442363019292001897811022 (0x1DDE9AED0F12398976060C59E2C0C4E)
    Complete name               : Scream.1996.UNCUT.1080p.BluRay.x264.DTS-CtrlHD.mkv
    Format                      : Matroska
    Format version              : Version 4
    File size                   : 10.8 GiB
    Duration                    : 1 h 50 min
    Overall bit rate            : 14.0 Mb/s
    Movie name                  : Scream.1996.1080p.BluRay.DTS.x264-CtrlHD
    Encoded date                : UTC 2019-01-30 12:08:15
    Writing application         : mkvmerge v30.1.0 ('Forever And More') 64-bit
    Writing library             : libebml v1.3.6 + libmatroska v1.4.9
    Cover                       : Yes
    Attachments                 : small_cover_land.jpg / cover.jpg / cover_land.jpg / small_cover.jpg
    
    Video
    ID                          : 1
    Format                      : AVC
    Format/Info                 : Advanced Video Codec
    Format profile              : [email protected]
    Format settings             : CABAC / 5 Ref Frames
    Format settings, CABAC      : Yes
    Format settings, Reference  : 5 frames
    Codec ID                    : V_MPEG4/ISO/AVC
    Duration                    : 1 h 50 min
    Bit rate                    : 12.5 Mb/s
    Width                       : 1 920 pixels
    Height                      : 816 pixels
    Display aspect ratio        : 2.35:1
    Frame rate mode             : Constant
    Frame rate                  : 23.976 (24000/1001) FPS
    Color space                 : YUV
    Chroma subsampling          : 4:2:0
    Bit depth                   : 8 bits
    Scan type                   : Progressive
    Bits/(Pixel*Frame)          : 0.331
    Stream size                 : 9.65 GiB (89%)
    Writing library             : x264 core 125 r2200kMod 999b753
    Encoding settings           : cabac=1 / ref=5 / deblock=1:-3:-3 / analyse=0x3:0x113 / me=umh / subme=11 / psy=1 / fade_compensate=0.00 / psy_rd=1.27:0.00 / mixed_ref=1 / me_range=16 / chroma_me=1 / trellis=2 / 8x8dct=1 / cqm=0 / deadzone=21,11 / fast_pskip=0 / chroma_qp_offset=-2 / threads=6 / lookahead_threads=1 / sliced_threads=0 / nr=0 / decimate=0 / interlaced=0 / bluray_compat=0 / constrained_intra=0 / bframes=8 / b_pyramid=2 / b_adapt=2 / b_bias=0 / direct=3 / weightb=1 / open_gop=0 / weightp=2 / keyint=250 / keyint_min=23 / scenecut=40 / intra_refresh=0 / rc=crf / mbtree=0 / crf=18.0000 / qcomp=0.60 / qpmin=0 / qpmax=69 / qpstep=4 / ip_ratio=1.30 / pb_ratio=1.30 / aq=1:0.60
    Language                    : English
    Default                     : No
    Forced                      : No
    
    Audio
    ID                          : 2
    Format                      : DTS
    Format/Info                 : Digital Theater Systems
    Codec ID                    : A_DTS
    Duration                    : 1 h 50 min
    Bit rate mode               : Constant
    Bit rate                    : 1 509 kb/s
    Channel(s)                  : 6 channels
    Channel layout              : C L R Ls Rs LFE
    Sampling rate               : 48.0 kHz
    Frame rate                  : 93.750 FPS (512 SPF)
    Bit depth                   : 24 bits
    Compression mode            : Lossy
    Stream size                 : 1.17 GiB (11%)
    Language                    : English
    Default                     : Yes
    Forced                      : No
    
    Text
    ID                          : 3
    Format                      : UTF-8
    Codec ID                    : S_TEXT/UTF8
    Codec ID/Info               : UTF-8 Plain Text
    Duration                    : 1 h 50 min
    Bit rate                    : 70 b/s
    Count of elements           : 1720
    Stream size                 : 57.2 KiB (0%)
    Language                    : English
    Default                     : No
    Forced                      : No
    
    Menu #1
    00:00:00.000                : en:Chapter 1
    00:05:00.000                : en:Chapter 2
    00:10:00.000                : en:Chapter 3
    00:15:00.000                : en:Chapter 4
    00:20:00.000                : en:Chapter 5
    00:25:00.000                : en:Chapter 6
    00:30:00.000                : en:Chapter 7
    00:35:00.000                : en:Chapter 8
    00:40:00.000                : en:Chapter 9
    00:45:00.000                : en:Chapter 10
    00:50:00.000                : en:Chapter 11
    00:55:00.000                : en:Chapter 12
    01:00:00.000                : en:Chapter 13
    01:05:00.000                : en:Chapter 14
    01:10:00.000                : en:Chapter 15
    01:15:00.000                : en:Chapter 16
    01:20:00.000                : en:Chapter 17
    01:25:00.000                : en:Chapter 18
    01:30:00.000                : en:Chapter 19
    01:35:00.000                : en:Chapter 20
    01:40:00.000                : en:Chapter 21
    01:45:00.000                : en:Chapter 22
    01:50:00.000                : en:Chapter 23
    
    Menu #2
    00:00:00.097                : en:00:00:00.097
    Download - Mirror 1:
    Download - Mirror 2:
     
  2. Loading...


Share This Page