Google Drive Scream.2022.2160p.UHD.BluRay.x265-SURCODE

Discussion in 'BDRip | 4K' started by DDLbase, Apr 1, 2022.

  1. DDLbase

    DDLbase Administrator Staff Member

    [​IMG]

    Rating: 6.5/10 based on 76,625 user ratings

    Genres: Horror, Mystery, Thriller

    "25 years after a streak of brutal murders shocked the quiet town of Woodsboro, Calif., a new killer dons the Ghostface mask and begins targeting a group of teenagers to resurrect secrets from the town's deadly past.

    [​IMG]
    Code:
    General
    Unique ID                   : 4336015909525710490430846219433091370 (0x3431616F791268FADB1D8B12049212A)
    Complete name               : Scream.2022.2160p.UHD.BluRay.x265-SURCODE.mkv
    Format                      : Matroska
    Format version              : Version 4
    File size                   : 27.1 GiB
    Duration                    : 1 h 54 min
    Overall bit rate mode       : Variable
    Overall bit rate            : 34.0 Mb/s
    Movie name                  : Scream
    Encoded date                : UTC 2022-03-31 05:58:04
    Writing application         : mkvmerge v51.0.0 ('I Wish') 64-bit
    Writing library             : libebml v1.4.0 + libmatroska v1.6.2
    
    Video
    ID                          : 1
    Format                      : HEVC
    Format/Info                 : High Efficiency Video Coding
    Format profile              : Main [email protected]@High
    HDR format                  : SMPTE ST 2086, HDR10 compatible
    Codec ID                    : V_MPEGH/ISO/HEVC
    Duration                    : 1 h 54 min
    Bit rate                    : 28.9 Mb/s
    Width                       : 3 840 pixels
    Height                      : 1 608 pixels
    Display aspect ratio        : 2.40:1
    Frame rate mode             : Constant
    Frame rate                  : 23.976 (24000/1001) FPS
    Color space                 : YUV
    Chroma subsampling          : 4:2:0 (Type 2)
    Bit depth                   : 10 bits
    Bits/(Pixel*Frame)          : 0.195
    Stream size                 : 23.1 GiB (85%)
    Writing library             : x265 3.5+35-e3713124d:[Windows][GCC 11.2.0][64 bit] 10bit
    Encoding settings           : cpuid=1111039 / frame-threads=5 / numa-pools=32 / wpp / no-pmode / no-pme / no-psnr / no-ssim / log-level=2 / input-csp=1 / input-res=3840x1608 / interlace=0 / total-frames=164446 / level-idc=51 / high-tier=1 / uhd-bd=0 / ref=4 / no-allow-non-conformance / repeat-headers / annexb / aud / no-eob / no-eos / hrd / info / hash=0 / no-temporal-layers / no-open-gop / min-keyint=23 / keyint=250 / gop-lookahead=0 / bframes=4 / b-adapt=2 / b-pyramid / bframe-bias=0 / rc-lookahead=25 / lookahead-slices=4 / scenecut=40 / no-hist-scenecut / radl=0 / no-splice / no-intra-refresh / ctu=64 / min-cu-size=8 / rect / no-amp / max-tu-size=32 / tu-inter-depth=1 / tu-intra-depth=1 / limit-tu=0 / rdoq-level=2 / dynamic-rd=0.00 / no-ssim-rd / signhide / no-tskip / nr-intra=0 / nr-inter=0 / no-constrained-intra / no-strong-intra-smoothing / max-merge=3 / limit-refs=3 / limit-modes / me=3 / subme=3 / merange=57 / temporal-mvp / no-frame-dup / no-hme / weightp / no-weightb / no-analyze-src-pics / deblock=-3:-3 / no-sao / no-sao-non-deblock / rd=4 / selective-sao=0 / no-early-skip / rskip / no-fast-intra / no-tskip-fast / no-cu-lossless / no-b-intra / no-splitrd-skip / rdpenalty=0 / psy-rd=2.00 / psy-rdoq=1.00 / no-rd-refine / no-lossless / cbqpoffs=0 / crqpoffs=0 / rc=crf / crf=13.0 / qcomp=0.60 / qpstep=4 / stats-write=0 / stats-read=0 / vbv-maxrate=160000 / vbv-bufsize=160000 / vbv-init=0.9 / min-vbv-fullness=50.0 / max-vbv-fullness=80.0 / crf-max=0.0 / crf-min=0.0 / ipratio=1.40 / pbratio=1.30 / aq-mode=2 / aq-strength=1.00 / cutree / zone-count=0 / no-strict-cbr / qg-size=32 / no-rc-grain / qpmax=69 / qpmin=0 / no-const-vbv / sar=1 / overscan=0 / videoformat=5 / range=0 / colorprim=9 / transfer=16 / colormatrix=9 / chromaloc=1 / chromaloc-top=2 / chromaloc-bottom=2 / display-window=0 / master-display=G(13250,34500)B(7500,3000)R(34000,16000)WP(15635,16450)L(10000000,01) / cll=192,82 / min-luma=0 / max-luma=1023 / log2-max-poc-lsb=8 / vui-timing-info / vui-hrd-info / slices=1 / no-opt-qp-pps / no-opt-ref-list-length-pps / no-multi-pass-opt-rps / scenecut-bias=0.05 / hist-threshold=0.03 / no-opt-cu-delta-qp / no-aq-motion / hdr10 / hdr10-opt / no-dhdr10-opt / no-idr-recovery-sei / analysis-reuse-level=0 / analysis-save-reuse-level=0 / analysis-load-reuse-level=0 / scale-factor=0 / refine-intra=0 / refine-inter=0 / refine-mv=1 / refine-ctu-distortion=0 / no-limit-sao / ctu-info=0 / no-lowpass-dct / refine-analysis-type=0 / copy-pic=1 / max-ausize-factor=1.0 / no-dynamic-refine / no-single-sei / no-hevc-aq / no-svt / no-field / qp-adaptation-range=1.00 / scenecut-aware-qp=0conformance-window-offsets / right=0 / bottom=0 / decoder-max-rate=0 / no-vbv-live-multi-pass
    Default                     : Yes
    Forced                      : No
    Color range                 : Limited
    Color primaries             : BT.2020
    Transfer characteristics    : PQ
    Matrix coefficients         : BT.2020 non-constant
    Mastering display color pri : Display P3
    Mastering display luminance : min: 0.0001 cd/m2, max: 1000 cd/m2
    Maximum Content Light Level : 192 cd/m2
    Maximum Frame-Average Light : 82 cd/m2
    
    Audio #1
    ID                          : 2
    ID in the original source m : 4352 (0x1100)
    Format                      : DTS XLL
    Format/Info                 : Digital Theater Systems
    Commercial name             : DTS-HD Master Audio
    Codec ID                    : A_DTS
    Duration                    : 1 h 54 min
    Bit rate mode               : Variable
    Bit rate                    : 4 374 kb/s
    Channel(s)                  : 8 channels
    Channel layout              : C L R LFE Lb Rb Lss Rss
    Sampling rate               : 48.0 kHz
    Frame rate                  : 93.750 FPS (512 SPF)
    Bit depth                   : 24 bits
    Compression mode            : Lossless
    Stream size                 : 3.49 GiB (13%)
    Language                    : English
    Default                     : Yes
    Forced                      : No
    Original source medium      : Blu-ray
    
    Audio #2
    ID                          : 3
    Format                      : AAC LC
    Format/Info                 : Advanced Audio Codec Low Complexity
    Codec ID                    : A_AAC-2
    Duration                    : 1 h 54 min
    Bit rate                    : 107 kb/s
    Channel(s)                  : 2 channels
    Channel layout              : L R
    Sampling rate               : 48.0 kHz
    Frame rate                  : 46.875 FPS (1024 SPF)
    Compression mode            : Lossy
    Delay relative to video     : 9 ms
    Stream size                 : 87.8 MiB (0%)
    Title                       : commentary
    Language                    : English
    Default                     : No
    Forced                      : No
    
    Text #1
    ID                          : 4
    ID in the original source m : 4768 (0x12A0)
    Format                      : PGS
    Muxing mode                 : zlib
    Codec ID                    : S_HDMV/PGS
    Codec ID/Info               : Picture based subtitle format used on BDs/HD-DVDs
    Duration                    : 1 h 46 min
    Bit rate                    : 41.5 kb/s
    Count of elements           : 2954
    Stream size                 : 31.5 MiB (0%)
    Language                    : English
    Default                     : No
    Forced                      : No
    Original source medium      : Blu-ray
    
    Text #2
    ID                          : 5
    ID in the original source m : 4769 (0x12A1)
    Format                      : PGS
    Muxing mode                 : zlib
    Codec ID                    : S_HDMV/PGS
    Codec ID/Info               : Picture based subtitle format used on BDs/HD-DVDs
    Duration                    : 1 h 53 min
    Bit rate                    : 43.2 kb/s
    Count of elements           : 3283
    Stream size                 : 35.1 MiB (0%)
    Language                    : English
    Default                     : No
    Forced                      : No
    Original source medium      : Blu-ray
    
    Text #3
    ID                          : 6
    ID in the original source m : 4770 (0x12A2)
    Format                      : PGS
    Muxing mode                 : zlib
    Codec ID                    : S_HDMV/PGS
    Codec ID/Info               : Picture based subtitle format used on BDs/HD-DVDs
    Duration                    : 1 h 53 min
    Bit rate                    : 31.4 kb/s
    Count of elements           : 2985
    Stream size                 : 25.5 MiB (0%)
    Language                    : Chinese
    Default                     : No
    Forced                      : No
    Original source medium      : Blu-ray
    
    Text #4
    ID                          : 7
    ID in the original source m : 4771 (0x12A3)
    Format                      : PGS
    Muxing mode                 : zlib
    Codec ID                    : S_HDMV/PGS
    Codec ID/Info               : Picture based subtitle format used on BDs/HD-DVDs
    Duration                    : 1 h 53 min
    Bit rate                    : 38.7 kb/s
    Count of elements           : 2845
    Stream size                 : 31.4 MiB (0%)
    Language                    : German
    Default                     : No
    Forced                      : No
    Original source medium      : Blu-ray
    
    Text #5
    ID                          : 8
    ID in the original source m : 4771 (0x12A3)
    Format                      : PGS
    Muxing mode                 : zlib
    Codec ID                    : S_HDMV/PGS
    Codec ID/Info               : Picture based subtitle format used on BDs/HD-DVDs
    Duration                    : 1 h 53 min
    Bit rate                    : 1 127 b/s
    Count of elements           : 98
    Stream size                 : 936 KiB (0%)
    Language                    : German
    Default                     : No
    Forced                      : No
    Original source medium      : Blu-ray
    
    Text #6
    ID                          : 9
    ID in the original source m : 4772 (0x12A4)
    Format                      : PGS
    Muxing mode                 : zlib
    Codec ID                    : S_HDMV/PGS
    Codec ID/Info               : Picture based subtitle format used on BDs/HD-DVDs
    Duration                    : 1 h 53 min
    Bit rate                    : 38.3 kb/s
    Count of elements           : 3031
    Stream size                 : 31.0 MiB (0%)
    Language                    : Spanish
    Default                     : No
    Forced                      : No
    Original source medium      : Blu-ray
    
    Text #7
    ID                          : 10
    ID in the original source m : 4772 (0x12A4)
    Format                      : PGS
    Muxing mode                 : zlib
    Codec ID                    : S_HDMV/PGS
    Codec ID/Info               : Picture based subtitle format used on BDs/HD-DVDs
    Duration                    : 1 h 53 min
    Bit rate                    : 1 059 b/s
    Count of elements           : 90
    Stream size                 : 879 KiB (0%)
    Language                    : Spanish
    Default                     : No
    Forced                      : No
    Original source medium      : Blu-ray
    
    Text #8
    ID                          : 11
    ID in the original source m : 4773 (0x12A5)
    Format                      : PGS
    Muxing mode                 : zlib
    Codec ID                    : S_HDMV/PGS
    Codec ID/Info               : Picture based subtitle format used on BDs/HD-DVDs
    Duration                    : 1 h 53 min
    Bit rate                    : 34.4 kb/s
    Count of elements           : 3027
    Stream size                 : 27.9 MiB (0%)
    Language                    : Spanish
    Default                     : No
    Forced                      : No
    Original source medium      : Blu-ray
    
    Text #9
    ID                          : 12
    ID in the original source m : 4773 (0x12A5)
    Format                      : PGS
    Muxing mode                 : zlib
    Codec ID                    : S_HDMV/PGS
    Codec ID/Info               : Picture based subtitle format used on BDs/HD-DVDs
    Duration                    : 1 h 53 min
    Bit rate                    : 1 093 b/s
    Count of elements           : 96
    Stream size                 : 907 KiB (0%)
    Language                    : Spanish
    Default                     : No
    Forced                      : No
    Original source medium      : Blu-ray
    
    Text #10
    ID                          : 13
    ID in the original source m : 4774 (0x12A6)
    Format                      : PGS
    Muxing mode                 : zlib
    Codec ID                    : S_HDMV/PGS
    Codec ID/Info               : Picture based subtitle format used on BDs/HD-DVDs
    Duration                    : 1 h 53 min
    Bit rate                    : 32.4 kb/s
    Count of elements           : 2797
    Stream size                 : 26.3 MiB (0%)
    Language                    : French
    Default                     : No
    Forced                      : No
    Original source medium      : Blu-ray
    
    Text #11
    ID                          : 14
    ID in the original source m : 4774 (0x12A6)
    Format                      : PGS
    Muxing mode                 : zlib
    Codec ID                    : S_HDMV/PGS
    Codec ID/Info               : Picture based subtitle format used on BDs/HD-DVDs
    Duration                    : 1 h 53 min
    Bit rate                    : 892 b/s
    Count of elements           : 94
    Stream size                 : 740 KiB (0%)
    Language                    : French
    Default                     : No
    Forced                      : No
    Original source medium      : Blu-ray
    
    Text #12
    ID                          : 15
    ID in the original source m : 4775 (0x12A7)
    Format                      : PGS
    Muxing mode                 : zlib
    Codec ID                    : S_HDMV/PGS
    Codec ID/Info               : Picture based subtitle format used on BDs/HD-DVDs
    Duration                    : 1 h 53 min
    Bit rate                    : 36.8 kb/s
    Count of elements           : 3011
    Stream size                 : 29.8 MiB (0%)
    Language                    : French
    Default                     : No
    Forced                      : No
    Original source medium      : Blu-ray
    
    Text #13
    ID                          : 16
    ID in the original source m : 4775 (0x12A7)
    Format                      : PGS
    Muxing mode                 : zlib
    Codec ID                    : S_HDMV/PGS
    Codec ID/Info               : Picture based subtitle format used on BDs/HD-DVDs
    Duration                    : 1 h 53 min
    Bit rate                    : 1 139 b/s
    Count of elements           : 102
    Stream size                 : 946 KiB (0%)
    Language                    : French
    Default                     : No
    Forced                      : No
    Original source medium      : Blu-ray
    
    Text #14
    ID                          : 17
    ID in the original source m : 4776 (0x12A8)
    Format                      : PGS
    Muxing mode                 : zlib
    Codec ID                    : S_HDMV/PGS
    Codec ID/Info               : Picture based subtitle format used on BDs/HD-DVDs
    Duration                    : 1 h 53 min
    Bit rate                    : 34.8 kb/s
    Count of elements           : 2929
    Stream size                 : 28.2 MiB (0%)
    Language                    : Italian
    Default                     : No
    Forced                      : No
    Original source medium      : Blu-ray
    
    Text #15
    ID                          : 18
    ID in the original source m : 4776 (0x12A8)
    Format                      : PGS
    Muxing mode                 : zlib
    Codec ID                    : S_HDMV/PGS
    Codec ID/Info               : Picture based subtitle format used on BDs/HD-DVDs
    Duration                    : 1 h 53 min
    Bit rate                    : 1 008 b/s
    Count of elements           : 90
    Stream size                 : 837 KiB (0%)
    Language                    : Italian
    Default                     : No
    Forced                      : No
    Original source medium      : Blu-ray
    
    Text #16
    ID                          : 19
    ID in the original source m : 4777 (0x12A9)
    Format                      : PGS
    Muxing mode                 : zlib
    Codec ID                    : S_HDMV/PGS
    Codec ID/Info               : Picture based subtitle format used on BDs/HD-DVDs
    Duration                    : 1 h 47 min
    Bit rate                    : 26.6 kb/s
    Count of elements           : 3049
    Stream size                 : 20.4 MiB (0%)
    Language                    : Japanese
    Default                     : No
    Forced                      : No
    Original source medium      : Blu-ray
    
    Text #17
    ID                          : 20
    ID in the original source m : 4778 (0x12AA)
    Format                      : PGS
    Muxing mode                 : zlib
    Codec ID                    : S_HDMV/PGS
    Codec ID/Info               : Picture based subtitle format used on BDs/HD-DVDs
    Duration                    : 1 h 53 min
    Bit rate                    : 27.1 kb/s
    Count of elements           : 3045
    Stream size                 : 21.9 MiB (0%)
    Language                    : Korean
    Default                     : No
    Forced                      : No
    Original source medium      : Blu-ray
    
    Text #18
    ID                          : 21
    ID in the original source m : 4779 (0x12AB)
    Format                      : PGS
    Muxing mode                 : zlib
    Codec ID                    : S_HDMV/PGS
    Codec ID/Info               : Picture based subtitle format used on BDs/HD-DVDs
    Duration                    : 1 h 53 min
    Bit rate                    : 33.6 kb/s
    Count of elements           : 2235
    Stream size                 : 27.2 MiB (0%)
    Language                    : Dutch
    Default                     : No
    Forced                      : No
    Original source medium      : Blu-ray
    
    Text #19
    ID                          : 22
    ID in the original source m : 4780 (0x12AC)
    Format                      : PGS
    Muxing mode                 : zlib
    Codec ID                    : S_HDMV/PGS
    Codec ID/Info               : Picture based subtitle format used on BDs/HD-DVDs
    Duration                    : 1 h 53 min
    Bit rate                    : 36.8 kb/s
    Count of elements           : 2995
    Stream size                 : 29.8 MiB (0%)
    Language                    : Russian
    Default                     : No
    Forced                      : No
    Original source medium      : Blu-ray
    
    Text #20
    ID                          : 23
    ID in the original source m : 4780 (0x12AC)
    Format                      : PGS
    Muxing mode                 : zlib
    Codec ID                    : S_HDMV/PGS
    Codec ID/Info               : Picture based subtitle format used on BDs/HD-DVDs
    Duration                    : 1 h 53 min
    Bit rate                    : 1 267 b/s
    Count of elements           : 110
    Stream size                 : 1.03 MiB (0%)
    Language                    : Russian
    Default                     : No
    Forced                      : No
    Original source medium      : Blu-ray
    
    Text #21
    ID                          : 24
    ID in the original source m : 4781 (0x12AD)
    Format                      : PGS
    Muxing mode                 : zlib
    Codec ID                    : S_HDMV/PGS
    Codec ID/Info               : Picture based subtitle format used on BDs/HD-DVDs
    Duration                    : 1 h 53 min
    Bit rate                    : 33.6 kb/s
    Count of elements           : 2983
    Stream size                 : 27.2 MiB (0%)
    Language                    : Thai
    Default                     : No
    Forced                      : No
    Original source medium      : Blu-ray
    
    Text #22
    ID                          : 25
    ID in the original source m : 4782 (0x12AE)
    Format                      : PGS
    Muxing mode                 : zlib
    Codec ID                    : S_HDMV/PGS
    Codec ID/Info               : Picture based subtitle format used on BDs/HD-DVDs
    Duration                    : 1 h 54 min
    Bit rate                    : 89.6 kb/s
    Count of elements           : 4704
    Stream size                 : 73.2 MiB (0%)
    Language                    : English
    Default                     : No
    Forced                      : No
    Original source medium      : Blu-ray
    
    Text #23
    ID                          : 26
    ID in the original source m : 4783 (0x12AF)
    Format                      : PGS
    Muxing mode                 : zlib
    Codec ID                    : S_HDMV/PGS
    Codec ID/Info               : Picture based subtitle format used on BDs/HD-DVDs
    Duration                    : 1 h 54 min
    Bit rate                    : 77.1 kb/s
    Count of elements           : 4394
    Stream size                 : 63.0 MiB (0%)
    Language                    : German
    Default                     : No
    Forced                      : No
    Original source medium      : Blu-ray
    
    Text #24
    ID                          : 27
    ID in the original source m : 4784 (0x12B0)
    Format                      : PGS
    Muxing mode                 : zlib
    Codec ID                    : S_HDMV/PGS
    Codec ID/Info               : Picture based subtitle format used on BDs/HD-DVDs
    Duration                    : 1 h 54 min
    Bit rate                    : 75.0 kb/s
    Count of elements           : 4507
    Stream size                 : 61.3 MiB (0%)
    Language                    : Spanish
    Default                     : No
    Forced                      : No
    Original source medium      : Blu-ray
    
    Text #25
    ID                          : 28
    ID in the original source m : 4785 (0x12B1)
    Format                      : PGS
    Muxing mode                 : zlib
    Codec ID                    : S_HDMV/PGS
    Codec ID/Info               : Picture based subtitle format used on BDs/HD-DVDs
    Duration                    : 1 h 54 min
    Bit rate                    : 74.4 kb/s
    Count of elements           : 4231
    Stream size                 : 60.8 MiB (0%)
    Language                    : Spanish
    Default                     : No
    Forced                      : No
    Original source medium      : Blu-ray
    
    Text #26
    ID                          : 29
    ID in the original source m : 4786 (0x12B2)
    Format                      : PGS
    Muxing mode                 : zlib
    Codec ID                    : S_HDMV/PGS
    Codec ID/Info               : Picture based subtitle format used on BDs/HD-DVDs
    Duration                    : 1 h 54 min
    Bit rate                    : 74.4 kb/s
    Count of elements           : 4670
    Stream size                 : 60.8 MiB (0%)
    Language                    : French
    Default                     : No
    Forced                      : No
    Original source medium      : Blu-ray
    
    Text #27
    ID                          : 30
    ID in the original source m : 4787 (0x12B3)
    Format                      : PGS
    Muxing mode                 : zlib
    Codec ID                    : S_HDMV/PGS
    Codec ID/Info               : Picture based subtitle format used on BDs/HD-DVDs
    Duration                    : 1 h 54 min
    Bit rate                    : 79.4 kb/s
    Count of elements           : 4652
    Stream size                 : 64.9 MiB (0%)
    Language                    : French
    Default                     : No
    Forced                      : No
    Original source medium      : Blu-ray
    
    Text #28
    ID                          : 31
    ID in the original source m : 4788 (0x12B4)
    Format                      : PGS
    Muxing mode                 : zlib
    Codec ID                    : S_HDMV/PGS
    Codec ID/Info               : Picture based subtitle format used on BDs/HD-DVDs
    Duration                    : 1 h 54 min
    Bit rate                    : 72.8 kb/s
    Count of elements           : 4654
    Stream size                 : 59.5 MiB (0%)
    Language                    : Italian
    Default                     : No
    Forced                      : No
    Original source medium      : Blu-ray
    
    Text #29
    ID                          : 32
    ID in the original source m : 4789 (0x12B5)
    Format                      : PGS
    Muxing mode                 : zlib
    Codec ID                    : S_HDMV/PGS
    Codec ID/Info               : Picture based subtitle format used on BDs/HD-DVDs
    Duration                    : 1 h 54 min
    Bit rate                    : 49.5 kb/s
    Count of elements           : 4132
    Stream size                 : 40.4 MiB (0%)
    Language                    : Japanese
    Default                     : No
    Forced                      : No
    Original source medium      : Blu-ray
    
    Text #30
    ID                          : 33
    ID in the original source m : 4790 (0x12B6)
    Format                      : PGS
    Muxing mode                 : zlib
    Codec ID                    : S_HDMV/PGS
    Codec ID/Info               : Picture based subtitle format used on BDs/HD-DVDs
    Duration                    : 1 h 54 min
    Bit rate                    : 68.1 kb/s
    Count of elements           : 4706
    Stream size                 : 55.7 MiB (0%)
    Language                    : Korean
    Default                     : No
    Forced                      : No
    Original source medium      : Blu-ray
    
    Text #31
    ID                          : 34
    ID in the original source m : 4791 (0x12B7)
    Format                      : PGS
    Muxing mode                 : zlib
    Codec ID                    : S_HDMV/PGS
    Codec ID/Info               : Picture based subtitle format used on BDs/HD-DVDs
    Duration                    : 1 h 47 min
    Bit rate                    : 946 b/s
    Count of elements           : 106
    Stream size                 : 743 KiB (0%)
    Language                    : Japanese
    Default                     : No
    Forced                      : No
    Original source medium      : Blu-ray
    
    Menu
    00:00:00.000                : en:Chapter 01
    00:11:18.636                : en:Chapter 02
    00:19:12.568                : en:Chapter 03
    00:31:06.364                : en:Chapter 04
    00:38:23.467                : en:Chapter 05
    00:44:21.492                : en:Chapter 06
    00:53:05.599                : en:Chapter 07
    00:59:44.372                : en:Chapter 08
    01:08:48.582                : en:Chapter 09
    01:16:27.374                : en:Chapter 10
    01:26:17.630                : en:Chapter 11
    01:38:30.446                : en:Chapter 12
    01:48:02.684                : en:Chapter 13
    Download - Mirror 1:
    Download - Mirror 2:
     
  2. Loading...


Share This Page