Google Drive Seberg.2019.1080p.BluRay.x264-SURCODE

Discussion in 'BDRip | 720p/1080p' started by DDLbase, Jan 28, 2021.

  1. DDLbase

    DDLbase Administrator Staff Member

    [​IMG]

    Rating: 5.7/10 based on 5,655 user ratings

    Genres: Biography, Drama, Thriller

    Inspired by real events in the life of French New Wave icon Jean Seberg. In the late 1960s, Hoover’s FBI targeted her because of her political and romantic involvement with civil rights activist Hakim Jamal.

    [​IMG]
    Code:
    General
    Unique ID                   : 26338709954095580010410287442507744725 (0x13D0A6A93A554F2E94F1AD50CDE245D5)
    Complete name               : Seberg.2019.1080p.BluRay.x264-SURCODE.mkv
    Format                      : Matroska
    Format version              : Version 4
    File size                   : 12.5 GiB
    Duration                    : 1 h 42 min
    Overall bit rate mode       : Variable
    Overall bit rate            : 17.4 Mb/s
    Encoded date                : UTC 2021-01-27 21:02:34
    Writing application         : mkvmerge v31.0.0 ('Dolores In A Shoestand') 64-bit
    Writing library             : libebml v1.3.6 + libmatroska v1.4.9
    
    Video
    ID                          : 1
    Format                      : AVC
    Format/Info                 : Advanced Video Codec
    Format profile              : [email protected]
    Format settings             : CABAC / 5 Ref Frames
    Format settings, CABAC      : Yes
    Format settings, Reference  : 5 frames
    Codec ID                    : V_MPEG4/ISO/AVC
    Duration                    : 1 h 42 min
    Bit rate                    : 14.0 Mb/s
    Width                       : 1 920 pixels
    Height                      : 836 pixels
    Display aspect ratio        : 2.25:1
    Frame rate mode             : Constant
    Frame rate                  : 24.000 FPS
    Color space                 : YUV
    Chroma subsampling          : 4:2:0
    Bit depth                   : 8 bits
    Scan type                   : Progressive
    Bits/(Pixel*Frame)          : 0.364
    Stream size                 : 10.1 GiB (81%)
    Writing library             : x264 core 161 r3027 4121277
    Encoding settings           : cabac=1 / ref=5 / deblock=1:-3:-3 / analyse=0x3:0x133 / me=umh / subme=9 / psy=1 / psy_rd=1.00:0.00 / mixed_ref=1 / me_range=16 / chroma_me=1 / trellis=2 / 8x8dct=1 / cqm=0 / deadzone=21,11 / fast_pskip=0 / chroma_qp_offset=-2 / threads=26 / lookahead_threads=2 / sliced_threads=0 / nr=0 / decimate=1 / interlaced=0 / bluray_compat=0 / constrained_intra=0 / bframes=3 / b_pyramid=2 / b_adapt=2 / b_bias=0 / direct=3 / weightb=1 / open_gop=0 / weightp=2 / keyint=250 / keyint_min=24 / scenecut=40 / intra_refresh=0 / rc_lookahead=60 / rc=crf / mbtree=1 / crf=17.0 / qcomp=0.60 / qpmin=0 / qpmax=69 / qpstep=4 / ip_ratio=1.40 / aq=1:1.00
    Language                    : English
    Default                     : Yes
    Forced                      : No
    
    Audio
    ID                          : 2
    Format                      : DTS XLL
    Format/Info                 : Digital Theater Systems
    Commercial name             : DTS-HD Master Audio
    Codec ID                    : A_DTS
    Duration                    : 1 h 42 min
    Bit rate mode               : Variable
    Bit rate                    : 3 334 kb/s
    Channel(s)                  : 6 channels
    Channel layout              : C L R Ls Rs LFE
    Sampling rate               : 48.0 kHz
    Frame rate                  : 93.750 FPS (512 SPF)
    Bit depth                   : 24 bits
    Compression mode            : Lossless
    Stream size                 : 2.39 GiB (19%)
    Language                    : English
    Default                     : Yes
    Forced                      : No
    
    Text #1
    ID                          : 3
    Format                      : UTF-8
    Codec ID                    : S_TEXT/UTF8
    Codec ID/Info               : UTF-8 Plain Text
    Duration                    : 1 h 26 min
    Bit rate                    : 1 b/s
    Count of elements           : 27
    Stream size                 : 830 Bytes (0%)
    Title                       : forced srt
    Language                    : English
    Default                     : Yes
    Forced                      : Yes
    
    Text #2
    ID                          : 4
    Format                      : PGS
    Muxing mode                 : zlib
    Codec ID                    : S_HDMV/PGS
    Codec ID/Info               : Picture based subtitle format used on BDs/HD-DVDs
    Duration                    : 1 h 26 min
    Bit rate                    : 710 b/s
    Count of elements           : 54
    Stream size                 : 448 KiB (0%)
    Title                       : forced
    Language                    : English
    Default                     : No
    Forced                      : No
    
    Text #3
    ID                          : 5
    Format                      : PGS
    Muxing mode                 : zlib
    Codec ID                    : S_HDMV/PGS
    Codec ID/Info               : Picture based subtitle format used on BDs/HD-DVDs
    Duration                    : 1 h 41 min
    Bit rate                    : 33.0 kb/s
    Count of elements           : 3062
    Stream size                 : 24.0 MiB (0%)
    Language                    : English
    Default                     : No
    Forced                      : No
    
    Text #4
    ID                          : 6
    Format                      : PGS
    Muxing mode                 : zlib
    Codec ID                    : S_HDMV/PGS
    Codec ID/Info               : Picture based subtitle format used on BDs/HD-DVDs
    Duration                    : 1 h 35 min
    Bit rate                    : 27.6 kb/s
    Count of elements           : 1734
    Stream size                 : 18.9 MiB (0%)
    Language                    : German
    Default                     : No
    Forced                      : No
    
    Text #5
    ID                          : 7
    Format                      : PGS
    Muxing mode                 : zlib
    Codec ID                    : S_HDMV/PGS
    Codec ID/Info               : Picture based subtitle format used on BDs/HD-DVDs
    Duration                    : 1 h 25 min
    Bit rate                    : 1 573 b/s
    Count of elements           : 86
    Stream size                 : 987 KiB (0%)
    Title                       : forced
    Language                    : German
    Default                     : No
    Forced                      : No
    
    Menu
    00:00:00.000                : en:Chapter 01
    00:07:05.792                : en:Chapter 02
    00:15:57.792                : en:Chapter 03
    00:22:04.333                : en:Chapter 04
    00:31:23.500                : en:Chapter 05
    00:40:29.500                : en:Chapter 06
    00:50:17.042                : en:Chapter 07
    01:00:49.042                : en:Chapter 08
    01:11:58.708                : en:Chapter 09
    01:21:57.250                : en:Chapter 10
    Download - Mirror 1:
    Download - Mirror 2:
     
  2. Loading...


Share This Page