Google Drive Section.375.2019.1080p.AMZN.WEB-DL.DD+5.1.H.264-KHN

Discussion in 'Web-DL / Webrip | 1080p' started by DDLbase, Nov 10, 2019.

  1. DDLbase

    DDLbase Administrator Staff Member

    [​IMG]
    [​IMG]
    Code:
    General
    Unique ID                   : 280623064668331077263555069827792028372 (0xD31E094D1F59FF9C46288FB8BFF0C2D4)
    Complete name               : Section.375.2019.1080p.AMZN.WEB-DL.DD+5.1.H.264-KHN.mkv
    Format                      : Matroska
    Format version              : Version 4 / Version 2
    File size                   : 8.75 GiB
    Duration                    : 2h 2mn
    Overall bit rate            : 10.2 Mbps
    Movie name                  : Section.375.2019.1080p.AMZN.WEB-DL.DD+5.1.H.264-KHN
    Encoded date                : UTC 2019-11-08 19:09:00
    Writing application         : mkvmerge v35.0.0 ('All The Love In The World') 64-bit
    Writing library             : libebml v1.3.9 + libmatroska v1.5.2
    
    Video
    ID                          : 1
    Format                      : AVC
    Format/Info                 : Advanced Video Codec
    Format profile              : [email protected]
    Format settings, CABAC      : Yes
    Format settings, ReFrames   : 4 frames
    Codec ID                    : V_MPEG4/ISO/AVC
    Duration                    : 2h 2mn
    Bit rate mode               : Constant
    Bit rate                    : 10 000 Kbps
    Width                       : 1 920 pixels
    Height                      : 816 pixels
    Display aspect ratio        : 2.35:1
    Frame rate mode             : Constant
    Frame rate                  : 24.000 fps
    Color space                 : YUV
    Chroma subsampling          : 4:2:0
    Bit depth                   : 8 bits
    Scan type                   : Progressive
    Bits/(Pixel*Frame)          : 0.266
    Stream size                 : 8.20 GiB (94%)
    Default                     : Yes
    Forced                      : No
    Color range                 : Limited
    Color primaries             : BT.709
    Transfer characteristics    : BT.709
    Matrix coefficients         : BT.709
    
    Audio
    ID                          : 2
    Format                      : E-AC-3
    Format/Info                 : Audio Coding 3
    Format settings, Endianness : Big
    Codec ID                    : A_EAC3
    Duration                    : 2h 2mn
    Bit rate mode               : Constant
    Bit rate                    : 640 Kbps
    Channel(s)                  : 6 channels
    Channel positions           : Front: L C R, Side: L R, LFE
    Sampling rate               : 48.0 KHz
    Frame rate                  : 187.500 fps (256 spf)
    Compression mode            : Lossy
    Stream size                 : 563 MiB (6%)
    Title                       : Hindi
    Language                    : Hindi
    Default                     : Yes
    Forced                      : No
    
    Text
    ID                          : 3
    Format                      : UTF-8
    Codec ID                    : S_TEXT/UTF8
    Codec ID/Info               : UTF-8 Plain Text
    Duration                    : 1h 56mn
    Bit rate                    : 71 bps
    Count of elements           : 1637
    Stream size                 : 61.0 KiB (0%)
    Title                       : English [CC]
    Language                    : English
    Default                     : No
    Forced                      : Yes
    Download:
     
  2. Loading...


Share This Page