Google Drive Sharper.2023.2160p.ATVP.WEB-DL.DDP5.1.Atmos.HDR.DV.HEVC-CMRG

Discussion in 'Web-DL / Webrip | 4K' started by DDLbase, Feb 17, 2023.

New website version: https://ddlbase.com (final revisions being made) New website version: https://ddlbase.com (final revisions being made)
  1. DDLbase

    DDLbase Administrator Staff Member

    [​IMG]

    Rating: 6.5/10 based on 599 user ratings

    Genres: Crime, Drama, Thriller

    A con artist takes on Manhattan's billionaires.

    [​IMG]
    Code:
    General
    Unique ID                   : 287739779696471751734907497456151173784 (0xD878AA714570BD3A87A17A1B938E1A98)
    Complete name               : Sharper.2023.2160p.ATVP.WEB-DL.DDP5.1.Atmos.HDR.DV.HEVC-CMRG.mkv
    Format                      : Matroska
    Format version              : Version 4
    File size                   : 20.3 GiB
    Duration                    : 1 h 56 min
    Overall bit rate            : 25.0 Mb/s
    Writing application         : mkvmerge v70.0.0 ('Caught A Lite Sneeze') 64-bit
    Writing library             : libebml v1.4.2 + libmatroska v1.6.4
    
    Video
    ID                          : 1
    Format                      : HEVC
    Format/Info                 : High Efficiency Video Coding
    Format profile              : Main 10@L5@High
    HDR format                  : Dolby Vision, Version 1.0, dvhe.08.06, BL+RPU, HDR10 compatible / SMPTE ST 2094 App 4, Version 1, HDR10+ Profile B compatible
    Codec ID                    : V_MPEGH/ISO/HEVC
    Duration                    : 1 h 51 min
    Bit rate                    : 25.3 Mb/s
    Width                       : 3 840 pixels
    Height                      : 1 608 pixels
    Display aspect ratio        : 2.40:1
    Frame rate mode             : Constant
    Frame rate                  : 25.000 FPS
    Color space                 : YUV
    Chroma subsampling          : 4:2:0 (Type 2)
    Bit depth                   : 10 bits
    Bits/(Pixel*Frame)          : 0.164
    Stream size                 : 19.7 GiB (97%)
    Language                    : English
    Default                     : Yes
    Forced                      : No
    Color range                 : Limited
    Color primaries             : BT.2020
    Transfer characteristics    : PQ
    Matrix coefficients         : BT.2020 non-constant
    Mastering display color pri : Display P3
    Mastering display luminance : min: 0.0050 cd/m2, max: 1000 cd/m2
    Maximum Content Light Level : 406 cd/m2
    Maximum Frame-Average Light : 78 cd/m2
    
    Audio
    ID                          : 2
    Format                      : E-AC-3 JOC
    Format/Info                 : Enhanced AC-3 with Joint Object Coding
    Commercial name             : Dolby Digital Plus with Dolby Atmos
    Codec ID                    : A_EAC3
    Duration                    : 1 h 56 min
    Bit rate mode               : Constant
    Bit rate                    : 768 kb/s
    Channel(s)                  : 6 channels
    Channel layout              : L R C LFE Ls Rs
    Sampling rate               : 48.0 kHz
    Frame rate                  : 31.250 FPS (1536 SPF)
    Compression mode            : Lossy
    Stream size                 : 639 MiB (3%)
    Language                    : English
    Service kind                : Complete Main
    Default                     : Yes
    Forced                      : No
    Complexity index            : 16
    Number of dynamic objects   : 15
    Bed channel count           : 1 channel
    Bed channel configuration   : LFE
    
    Text #1
    ID                          : 3
    Format                      : UTF-8
    Codec ID                    : S_TEXT/UTF8
    Codec ID/Info               : UTF-8 Plain Text
    Duration                    : 26 min 57 s
    Bit rate                    : 1 b/s
    Frame rate                  : 0.006 FPS
    Count of elements           : 9
    Stream size                 : 272 Bytes (0%)
    Title                       : Forced
    Language                    : English
    Default                     : Yes
    Forced                      : Yes
    
    Text #2
    ID                          : 4
    Format                      : UTF-8
    Codec ID                    : S_TEXT/UTF8
    Codec ID/Info               : UTF-8 Plain Text
    Duration                    : 1 h 47 min
    Bit rate                    : 62 b/s
    Frame rate                  : 0.223 FPS
    Count of elements           : 1444
    Stream size                 : 49.3 KiB (0%)
    Language                    : English
    Default                     : No
    Forced                      : No
    
    Text #3
    ID                          : 5
    Format                      : UTF-8
    Codec ID                    : S_TEXT/UTF8
    Codec ID/Info               : UTF-8 Plain Text
    Duration                    : 1 h 52 min
    Bit rate                    : 70 b/s
    Frame rate                  : 0.240 FPS
    Count of elements           : 1614
    Stream size                 : 57.7 KiB (0%)
    Title                       : SDH
    Language                    : English
    Default                     : No
    Forced                      : No
    
    Text #4
    ID                          : 6
    Format                      : UTF-8
    Codec ID                    : S_TEXT/UTF8
    Codec ID/Info               : UTF-8 Plain Text
    Duration                    : 1 h 54 min
    Bit rate                    : 93 b/s
    Frame rate                  : 0.209 FPS
    Count of elements           : 1440
    Stream size                 : 78.8 KiB (0%)
    Language                    : Arabic
    Default                     : No
    Forced                      : No
    
    Text #5
    ID                          : 7
    Format                      : UTF-8
    Codec ID                    : S_TEXT/UTF8
    Codec ID/Info               : UTF-8 Plain Text
    Duration                    : 1 h 54 min
    Bit rate                    : 75 b/s
    Frame rate                  : 0.182 FPS
    Count of elements           : 1253
    Stream size                 : 63.8 KiB (0%)
    Language                    : Bulgarian
    Default                     : No
    Forced                      : No
    
    Text #6
    ID                          : 8
    Format                      : UTF-8
    Codec ID                    : S_TEXT/UTF8
    Codec ID/Info               : UTF-8 Plain Text
    Duration                    : 1 h 54 min
    Bit rate                    : 48 b/s
    Frame rate                  : 0.201 FPS
    Count of elements           : 1381
    Stream size                 : 40.5 KiB (0%)
    Language                    : Czech
    Default                     : No
    Forced                      : No
    
    Text #7
    ID                          : 9
    Format                      : UTF-8
    Codec ID                    : S_TEXT/UTF8
    Codec ID/Info               : UTF-8 Plain Text
    Duration                    : 1 h 54 min
    Bit rate                    : 52 b/s
    Frame rate                  : 0.180 FPS
    Count of elements           : 1241
    Stream size                 : 44.2 KiB (0%)
    Language                    : Danish
    Default                     : No
    Forced                      : No
    
    Text #8
    ID                          : 10
    Format                      : UTF-8
    Codec ID                    : S_TEXT/UTF8
    Codec ID/Info               : UTF-8 Plain Text
    Duration                    : 1 h 54 min
    Bit rate                    : 50 b/s
    Frame rate                  : 0.186 FPS
    Count of elements           : 1277
    Stream size                 : 42.8 KiB (0%)
    Language                    : German
    Default                     : No
    Forced                      : No
    
    Text #9
    ID                          : 11
    Format                      : UTF-8
    Codec ID                    : S_TEXT/UTF8
    Codec ID/Info               : UTF-8 Plain Text
    Duration                    : 1 h 54 min
    Bit rate                    : 88 b/s
    Frame rate                  : 0.208 FPS
    Count of elements           : 1429
    Stream size                 : 74.8 KiB (0%)
    Language                    : Greek
    Default                     : No
    Forced                      : No
    
    Text #10
    ID                          : 12
    Format                      : UTF-8
    Codec ID                    : S_TEXT/UTF8
    Codec ID/Info               : UTF-8 Plain Text
    Duration                    : 1 h 54 min
    Bit rate                    : 58 b/s
    Frame rate                  : 0.210 FPS
    Count of elements           : 1447
    Stream size                 : 48.9 KiB (0%)
    Language                    : Spanish
    Default                     : No
    Forced                      : No
    
    Text #11
    ID                          : 13
    Format                      : UTF-8
    Codec ID                    : S_TEXT/UTF8
    Codec ID/Info               : UTF-8 Plain Text
    Duration                    : 1 h 54 min
    Bit rate                    : 55 b/s
    Frame rate                  : 0.209 FPS
    Count of elements           : 1440
    Stream size                 : 46.3 KiB (0%)
    Title                       : Latin American
    Language                    : Spanish
    Default                     : No
    Forced                      : No
    
    Text #12
    ID                          : 14
    Format                      : UTF-8
    Codec ID                    : S_TEXT/UTF8
    Codec ID/Info               : UTF-8 Plain Text
    Duration                    : 1 h 54 min
    Bit rate                    : 50 b/s
    Frame rate                  : 0.197 FPS
    Count of elements           : 1357
    Stream size                 : 42.0 KiB (0%)
    Language                    : Estonian
    Default                     : No
    Forced                      : No
    
    Text #13
    ID                          : 15
    Format                      : UTF-8
    Codec ID                    : S_TEXT/UTF8
    Codec ID/Info               : UTF-8 Plain Text
    Duration                    : 1 h 54 min
    Bit rate                    : 50 b/s
    Frame rate                  : 0.197 FPS
    Count of elements           : 1354
    Stream size                 : 42.7 KiB (0%)
    Language                    : Finnish
    Default                     : No
    Forced                      : No
    
    Text #14
    ID                          : 16
    Format                      : UTF-8
    Codec ID                    : S_TEXT/UTF8
    Codec ID/Info               : UTF-8 Plain Text
    Duration                    : 1 h 49 min
    Bit rate                    : 49 b/s
    Frame rate                  : 0.215 FPS
    Count of elements           : 1413
    Stream size                 : 39.9 KiB (0%)
    Language                    : French
    Default                     : No
    Forced                      : No
    
    Text #15
    ID                          : 17
    Format                      : UTF-8
    Codec ID                    : S_TEXT/UTF8
    Codec ID/Info               : UTF-8 Plain Text
    Duration                    : 1 h 51 min
    Bit rate                    : 48 b/s
    Frame rate                  : 0.212 FPS
    Count of elements           : 1414
    Stream size                 : 39.9 KiB (0%)
    Title                       : Canadian
    Language                    : French
    Default                     : No
    Forced                      : No
    
    Text #16
    ID                          : 18
    Format                      : UTF-8
    Codec ID                    : S_TEXT/UTF8
    Codec ID/Info               : UTF-8 Plain Text
    Duration                    : 1 h 54 min
    Bit rate                    : 75 b/s
    Frame rate                  : 0.212 FPS
    Count of elements           : 1457
    Stream size                 : 63.3 KiB (0%)
    Language                    : Hebrew
    Default                     : No
    Forced                      : No
    
    Text #17
    ID                          : 19
    Format                      : UTF-8
    Codec ID                    : S_TEXT/UTF8
    Codec ID/Info               : UTF-8 Plain Text
    Duration                    : 1 h 54 min
    Bit rate                    : 161 b/s
    Frame rate                  : 0.212 FPS
    Count of elements           : 1458
    Stream size                 : 135 KiB (0%)
    Language                    : Hindi
    Default                     : No
    Forced                      : No
    
    Text #18
    ID                          : 20
    Format                      : UTF-8
    Codec ID                    : S_TEXT/UTF8
    Codec ID/Info               : UTF-8 Plain Text
    Duration                    : 1 h 54 min
    Bit rate                    : 55 b/s
    Frame rate                  : 0.209 FPS
    Count of elements           : 1440
    Stream size                 : 46.3 KiB (0%)
    Language                    : Hungarian
    Default                     : No
    Forced                      : No
    
    Text #19
    ID                          : 21
    Format                      : UTF-8
    Codec ID                    : S_TEXT/UTF8
    Codec ID/Info               : UTF-8 Plain Text
    Duration                    : 1 h 54 min
    Bit rate                    : 59 b/s
    Frame rate                  : 0.211 FPS
    Count of elements           : 1452
    Stream size                 : 49.6 KiB (0%)
    Language                    : Indonesian
    Default                     : No
    Forced                      : No
    
    Text #20
    ID                          : 22
    Format                      : UTF-8
    Codec ID                    : S_TEXT/UTF8
    Codec ID/Info               : UTF-8 Plain Text
    Duration                    : 1 h 54 min
    Bit rate                    : 53 b/s
    Frame rate                  : 0.195 FPS
    Count of elements           : 1341
    Stream size                 : 44.9 KiB (0%)
    Language                    : Italian
    Default                     : No
    Forced                      : No
    
    Text #21
    ID                          : 23
    Format                      : UTF-8
    Codec ID                    : S_TEXT/UTF8
    Codec ID/Info               : UTF-8 Plain Text
    Duration                    : 1 h 54 min
    Bit rate                    : 43 b/s
    Frame rate                  : 0.202 FPS
    Count of elements           : 1393
    Stream size                 : 36.2 KiB (0%)
    Language                    : Japanese
    Default                     : No
    Forced                      : No
    
    Text #22
    ID                          : 24
    Format                      : UTF-8
    Codec ID                    : S_TEXT/UTF8
    Codec ID/Info               : UTF-8 Plain Text
    Duration                    : 1 h 54 min
    Bit rate                    : 64 b/s
    Frame rate                  : 0.212 FPS
    Count of elements           : 1458
    Stream size                 : 54.0 KiB (0%)
    Language                    : Korean
    Default                     : No
    Forced                      : No
    
    Text #23
    ID                          : 25
    Format                      : UTF-8
    Codec ID                    : S_TEXT/UTF8
    Codec ID/Info               : UTF-8 Plain Text
    Duration                    : 1 h 54 min
    Bit rate                    : 55 b/s
    Frame rate                  : 0.207 FPS
    Count of elements           : 1423
    Stream size                 : 47.0 KiB (0%)
    Language                    : Lithuanian
    Default                     : No
    Forced                      : No
    
    Text #24
    ID                          : 26
    Format                      : UTF-8
    Codec ID                    : S_TEXT/UTF8
    Codec ID/Info               : UTF-8 Plain Text
    Duration                    : 1 h 54 min
    Bit rate                    : 57 b/s
    Frame rate                  : 0.210 FPS
    Count of elements           : 1447
    Stream size                 : 47.9 KiB (0%)
    Language                    : Latvian
    Default                     : No
    Forced                      : No
    
    Text #25
    ID                          : 27
    Format                      : UTF-8
    Codec ID                    : S_TEXT/UTF8
    Codec ID/Info               : UTF-8 Plain Text
    Duration                    : 1 h 54 min
    Bit rate                    : 57 b/s
    Frame rate                  : 0.211 FPS
    Count of elements           : 1449
    Stream size                 : 48.5 KiB (0%)
    Language                    : Malay
    Default                     : No
    Forced                      : No
    
    Text #26
    ID                          : 28
    Format                      : UTF-8
    Codec ID                    : S_TEXT/UTF8
    Codec ID/Info               : UTF-8 Plain Text
    Duration                    : 1 h 54 min
    Bit rate                    : 46 b/s
    Frame rate                  : 0.173 FPS
    Count of elements           : 1190
    Stream size                 : 38.8 KiB (0%)
    Language                    : Dutch
    Default                     : No
    Forced                      : No
    
    Text #27
    ID                          : 29
    Format                      : UTF-8
    Codec ID                    : S_TEXT/UTF8
    Codec ID/Info               : UTF-8 Plain Text
    Duration                    : 1 h 54 min
    Bit rate                    : 50 b/s
    Frame rate                  : 0.184 FPS
    Count of elements           : 1265
    Stream size                 : 42.5 KiB (0%)
    Language                    : Norwegian
    Default                     : No
    Forced                      : No
    
    Text #28
    ID                          : 30
    Format                      : UTF-8
    Codec ID                    : S_TEXT/UTF8
    Codec ID/Info               : UTF-8 Plain Text
    Duration                    : 1 h 54 min
    Bit rate                    : 51 b/s
    Frame rate                  : 0.210 FPS
    Count of elements           : 1446
    Stream size                 : 43.6 KiB (0%)
    Language                    : Polish
    Default                     : No
    Forced                      : No
    
    Text #29
    ID                          : 31
    Format                      : UTF-8
    Codec ID                    : S_TEXT/UTF8
    Codec ID/Info               : UTF-8 Plain Text
    Duration                    : 1 h 54 min
    Bit rate                    : 52 b/s
    Frame rate                  : 0.207 FPS
    Count of elements           : 1425
    Stream size                 : 43.9 KiB (0%)
    Language                    : Portuguese
    Default                     : No
    Forced                      : No
    
    Text #30
    ID                          : 32
    Format                      : UTF-8
    Codec ID                    : S_TEXT/UTF8
    Codec ID/Info               : UTF-8 Plain Text
    Duration                    : 1 h 54 min
    Bit rate                    : 49 b/s
    Frame rate                  : 0.203 FPS
    Count of elements           : 1398
    Stream size                 : 41.7 KiB (0%)
    Title                       : Brazilian
    Language                    : Portuguese
    Default                     : No
    Forced                      : No
    
    Text #31
    ID                          : 33
    Format                      : UTF-8
    Codec ID                    : S_TEXT/UTF8
    Codec ID/Info               : UTF-8 Plain Text
    Duration                    : 1 h 54 min
    Bit rate                    : 80 b/s
    Frame rate                  : 0.200 FPS
    Count of elements           : 1377
    Stream size                 : 67.6 KiB (0%)
    Language                    : Russian
    Default                     : No
    Forced                      : No
    
    Text #32
    ID                          : 34
    Format                      : UTF-8
    Codec ID                    : S_TEXT/UTF8
    Codec ID/Info               : UTF-8 Plain Text
    Duration                    : 1 h 54 min
    Bit rate                    : 50 b/s
    Frame rate                  : 0.207 FPS
    Count of elements           : 1422
    Stream size                 : 42.4 KiB (0%)
    Language                    : Slovak
    Default                     : No
    Forced                      : No
    
    Text #33
    ID                          : 35
    Format                      : UTF-8
    Codec ID                    : S_TEXT/UTF8
    Codec ID/Info               : UTF-8 Plain Text
    Duration                    : 1 h 54 min
    Bit rate                    : 42 b/s
    Frame rate                  : 0.209 FPS
    Count of elements           : 1437
    Stream size                 : 36.1 KiB (0%)
    Language                    : Slovenian
    Default                     : No
    Forced                      : No
    
    Text #34
    ID                          : 36
    Format                      : UTF-8
    Codec ID                    : S_TEXT/UTF8
    Codec ID/Info               : UTF-8 Plain Text
    Duration                    : 1 h 54 min
    Bit rate                    : 56 b/s
    Frame rate                  : 0.198 FPS
    Count of elements           : 1364
    Stream size                 : 47.1 KiB (0%)
    Language                    : Swedish
    Default                     : No
    Forced                      : No
    
    Text #35
    ID                          : 37
    Format                      : UTF-8
    Codec ID                    : S_TEXT/UTF8
    Codec ID/Info               : UTF-8 Plain Text
    Duration                    : 1 h 54 min
    Bit rate                    : 190 b/s
    Frame rate                  : 0.212 FPS
    Count of elements           : 1456
    Stream size                 : 160 KiB (0%)
    Language                    : Tamil
    Default                     : No
    Forced                      : No
    
    Text #36
    ID                          : 38
    Format                      : UTF-8
    Codec ID                    : S_TEXT/UTF8
    Codec ID/Info               : UTF-8 Plain Text
    Duration                    : 1 h 54 min
    Bit rate                    : 165 b/s
    Frame rate                  : 0.212 FPS
    Count of elements           : 1457
    Stream size                 : 139 KiB (0%)
    Language                    : Telugu
    Default                     : No
    Forced                      : No
    
    Text #37
    ID                          : 39
    Format                      : UTF-8
    Codec ID                    : S_TEXT/UTF8
    Codec ID/Info               : UTF-8 Plain Text
    Duration                    : 1 h 54 min
    Bit rate                    : 139 b/s
    Frame rate                  : 0.212 FPS
    Count of elements           : 1457
    Stream size                 : 117 KiB (0%)
    Language                    : Thai
    Default                     : No
    Forced                      : No
    
    Text #38
    ID                          : 40
    Format                      : UTF-8
    Codec ID                    : S_TEXT/UTF8
    Codec ID/Info               : UTF-8 Plain Text
    Duration                    : 1 h 54 min
    Bit rate                    : 56 b/s
    Frame rate                  : 0.210 FPS
    Count of elements           : 1445
    Stream size                 : 47.3 KiB (0%)
    Language                    : Turkish
    Default                     : No
    Forced                      : No
    
    Text #39
    ID                          : 41
    Format                      : UTF-8
    Codec ID                    : S_TEXT/UTF8
    Codec ID/Info               : UTF-8 Plain Text
    Duration                    : 1 h 54 min
    Bit rate                    : 87 b/s
    Frame rate                  : 0.212 FPS
    Count of elements           : 1456
    Stream size                 : 73.9 KiB (0%)
    Language                    : Ukrainian
    Default                     : No
    Forced                      : No
    
    Text #40
    ID                          : 42
    Format                      : UTF-8
    Codec ID                    : S_TEXT/UTF8
    Codec ID/Info               : UTF-8 Plain Text
    Duration                    : 1 h 54 min
    Bit rate                    : 70 b/s
    Frame rate                  : 0.211 FPS
    Count of elements           : 1452
    Stream size                 : 59.3 KiB (0%)
    Language                    : Vietnamese
    Default                     : No
    Forced                      : No
    
    Text #41
    ID                          : 43
    Format                      : UTF-8
    Codec ID                    : S_TEXT/UTF8
    Codec ID/Info               : UTF-8 Plain Text
    Duration                    : 1 h 54 min
    Bit rate                    : 48 b/s
    Frame rate                  : 0.212 FPS
    Count of elements           : 1458
    Stream size                 : 40.4 KiB (0%)
    Title                       : Traditional
    Language                    : Chinese
    Default                     : No
    Forced                      : No
    
    Text #42
    ID                          : 44
    Format                      : UTF-8
    Codec ID                    : S_TEXT/UTF8
    Codec ID/Info               : UTF-8 Plain Text
    Duration                    : 1 h 54 min
    Bit rate                    : 51 b/s
    Frame rate                  : 0.212 FPS
    Count of elements           : 1457
    Stream size                 : 43.1 KiB (0%)
    Title                       : Mandarin Chinese Simplified
    Language                    : Chinese
    Default                     : No
    Forced                      : No
    
    Text #43
    ID                          : 45
    Format                      : UTF-8
    Codec ID                    : S_TEXT/UTF8
    Codec ID/Info               : UTF-8 Plain Text
    Duration                    : 1 h 54 min
    Bit rate                    : 53 b/s
    Frame rate                  : 0.212 FPS
    Count of elements           : 1458
    Stream size                 : 45.0 KiB (0%)
    Title                       : Mandarin Chinese Traditional
    Language                    : Chinese
    Default                     : No
    Forced                      : No
    Download - Mirror 1:
    Download - Mirror 2:
    Download - Mirror 3:
     
  2. Loading...


Share This Page