Google Drive Shazam.Fury.of.the.Gods.2023.2160p.WEB-DL.DDP5.1.Atmos.DV.HDR.H.265-FLUX

Discussion in 'Web-DL / Webrip | 4K' started by DDLbase, Apr 8, 2023.

New website version: https://ddlbase.com (final revisions being made) New website version: https://ddlbase.com (final revisions being made)
  1. DDLbase

    DDLbase Administrator Staff Member

    [​IMG]

    Rating: 6.5/10 based on ‎29,397 user ratings

    Genres: Action, Adventure, Comedy

    The film continues the story of teenage Billy Batson who, upon reciting the magic word "SHAZAM!" is transformed into his adult Super Hero alter ego, Shazam.

    [​IMG]
    Code:
    General
    Unique ID                   : 222063846663223664465923529172208876817 (0xA70FF0F1879EF6222CCBD2A1ABDC7D11)
    Complete name               : Shazam.Fury.of.the.Gods.2023.2160p.WEB-DL.DDP5.1.Atmos.DV.HDR.H.265-FLUX.mkv
    Format                      : Matroska
    Format version              : Version 4
    File size                   : 22.9 GiB
    Duration                    : 2 h 10 min
    Overall bit rate            : 25.1 Mb/s
    Writing application         : mkvmerge v75.0.0 ('Goliath') 64-bit
    Writing library             : libebml v1.4.4 + libmatroska v1.7.1
    
    Video
    ID                          : 1
    Format                      : HEVC
    Format/Info                 : High Efficiency Video Coding
    Format profile              : Main 10@L5@High
    HDR format                  : Dolby Vision, Version 1.0, dvhe.08.06, BL+RPU, HDR10 compatible / SMPTE ST 2094 App 4, Version 1, HDR10+ Profile B compatible
    Codec ID                    : V_MPEGH/ISO/HEVC
    Duration                    : 2 h 10 min
    Bit rate                    : 24.4 Mb/s
    Width                       : 3 840 pixels
    Height                      : 1 606 pixels
    Display aspect ratio        : 2.40:1
    Frame rate mode             : Constant
    Frame rate                  : 23.976 (24000/1001) FPS
    Color space                 : YUV
    Chroma subsampling          : 4:2:0 (Type 2)
    Bit depth                   : 10 bits
    Bits/(Pixel*Frame)          : 0.165
    Stream size                 : 22.2 GiB (97%)
    Default                     : Yes
    Forced                      : No
    Color range                 : Limited
    Color primaries             : BT.2020
    Transfer characteristics    : PQ
    Matrix coefficients         : BT.2020 non-constant
    Mastering display color pri : BT.2020
    Mastering display luminance : min: 0.0050 cd/m2, max: 1000 cd/m2
    Maximum Content Light Level : 1523 cd/m2
    Maximum Frame-Average Light : 445 cd/m2
    
    Audio
    ID                          : 2
    Format                      : E-AC-3 JOC
    Format/Info                 : Enhanced AC-3 with Joint Object Coding
    Commercial name             : Dolby Digital Plus with Dolby Atmos
    Codec ID                    : A_EAC3
    Duration                    : 2 h 10 min
    Bit rate mode               : Constant
    Bit rate                    : 768 kb/s
    Channel(s)                  : 6 channels
    Channel layout              : L R C LFE Ls Rs
    Sampling rate               : 48.0 kHz
    Frame rate                  : 31.250 FPS (1536 SPF)
    Compression mode            : Lossy
    Stream size                 : 715 MiB (3%)
    Language                    : English
    Service kind                : Complete Main
    Default                     : Yes
    Forced                      : No
    Complexity index            : 16
    Number of dynamic objects   : 15
    Bed channel count           : 1 channel
    Bed channel configuration   : LFE
    
    Text #1
    ID                          : 3
    Format                      : UTF-8
    Codec ID                    : S_TEXT/UTF8
    Codec ID/Info               : UTF-8 Plain Text
    Duration                    : 2 h 9 min
    Bit rate                    : 68 b/s
    Frame rate                  : 0.298 FPS
    Count of elements           : 2318
    Stream size                 : 64.9 KiB (0%)
    Title                       : CC
    Language                    : English
    Default                     : No
    Forced                      : No
    
    Text #2
    ID                          : 4
    Format                      : UTF-8
    Codec ID                    : S_TEXT/UTF8
    Codec ID/Info               : UTF-8 Plain Text
    Duration                    : 2 h 9 min
    Bit rate                    : 49 b/s
    Frame rate                  : 0.221 FPS
    Count of elements           : 1715
    Stream size                 : 46.4 KiB (0%)
    Title                       : Mandarin, Simplified
    Language                    : Chinese
    Default                     : No
    Forced                      : No
    
    Text #3
    ID                          : 5
    Format                      : UTF-8
    Codec ID                    : S_TEXT/UTF8
    Codec ID/Info               : UTF-8 Plain Text
    Duration                    : 2 h 9 min
    Bit rate                    : 53 b/s
    Frame rate                  : 0.221 FPS
    Count of elements           : 1716
    Stream size                 : 51.0 KiB (0%)
    Language                    : Czech
    Default                     : No
    Forced                      : No
    
    Text #4
    ID                          : 6
    Format                      : UTF-8
    Codec ID                    : S_TEXT/UTF8
    Codec ID/Info               : UTF-8 Plain Text
    Duration                    : 2 h 8 min
    Bit rate                    : 42 b/s
    Frame rate                  : 0.135 FPS
    Count of elements           : 1040
    Stream size                 : 40.3 KiB (0%)
    Language                    : Danish
    Default                     : No
    Forced                      : No
    
    Text #5
    ID                          : 7
    Format                      : UTF-8
    Codec ID                    : S_TEXT/UTF8
    Codec ID/Info               : UTF-8 Plain Text
    Duration                    : 2 h 8 min
    Bit rate                    : 59 b/s
    Frame rate                  : 0.179 FPS
    Count of elements           : 1384
    Stream size                 : 55.8 KiB (0%)
    Language                    : German
    Default                     : No
    Forced                      : No
    
    Text #6
    ID                          : 8
    Format                      : UTF-8
    Codec ID                    : S_TEXT/UTF8
    Codec ID/Info               : UTF-8 Plain Text
    Duration                    : 2 h 9 min
    Bit rate                    : 64 b/s
    Frame rate                  : 0.200 FPS
    Count of elements           : 1556
    Stream size                 : 61.3 KiB (0%)
    Title                       : SDH
    Language                    : German
    Default                     : No
    Forced                      : No
    
    Text #7
    ID                          : 9
    Format                      : UTF-8
    Codec ID                    : S_TEXT/UTF8
    Codec ID/Info               : UTF-8 Plain Text
    Duration                    : 2 h 9 min
    Bit rate                    : 82 b/s
    Frame rate                  : 0.220 FPS
    Count of elements           : 1709
    Stream size                 : 77.7 KiB (0%)
    Language                    : Greek
    Default                     : No
    Forced                      : No
    
    Text #8
    ID                          : 10
    Format                      : UTF-8
    Codec ID                    : S_TEXT/UTF8
    Codec ID/Info               : UTF-8 Plain Text
    Duration                    : 2 h 8 min
    Bit rate                    : 53 b/s
    Frame rate                  : 0.221 FPS
    Count of elements           : 1709
    Stream size                 : 50.8 KiB (0%)
    Title                       : Latin American
    Language                    : Spanish
    Default                     : No
    Forced                      : No
    
    Text #9
    ID                          : 11
    Format                      : UTF-8
    Codec ID                    : S_TEXT/UTF8
    Codec ID/Info               : UTF-8 Plain Text
    Duration                    : 2 h 9 min
    Bit rate                    : 50 b/s
    Frame rate                  : 0.214 FPS
    Count of elements           : 1664
    Stream size                 : 48.2 KiB (0%)
    Title                       : European
    Language                    : Spanish
    Default                     : No
    Forced                      : No
    
    Text #10
    ID                          : 12
    Format                      : UTF-8
    Codec ID                    : S_TEXT/UTF8
    Codec ID/Info               : UTF-8 Plain Text
    Duration                    : 2 h 9 min
    Bit rate                    : 48 b/s
    Frame rate                  : 0.217 FPS
    Count of elements           : 1680
    Stream size                 : 45.8 KiB (0%)
    Language                    : Estonian
    Default                     : No
    Forced                      : No
    
    Text #11
    ID                          : 13
    Format                      : UTF-8
    Codec ID                    : S_TEXT/UTF8
    Codec ID/Info               : UTF-8 Plain Text
    Duration                    : 2 h 8 min
    Bit rate                    : 48 b/s
    Frame rate                  : 0.219 FPS
    Count of elements           : 1691
    Stream size                 : 45.9 KiB (0%)
    Language                    : Finnish
    Default                     : No
    Forced                      : No
    
    Text #12
    ID                          : 14
    Format                      : UTF-8
    Codec ID                    : S_TEXT/UTF8
    Codec ID/Info               : UTF-8 Plain Text
    Duration                    : 2 h 9 min
    Bit rate                    : 43 b/s
    Frame rate                  : 0.198 FPS
    Count of elements           : 1533
    Stream size                 : 41.3 KiB (0%)
    Title                       : European
    Language                    : French
    Default                     : No
    Forced                      : No
    
    Text #13
    ID                          : 15
    Format                      : UTF-8
    Codec ID                    : S_TEXT/UTF8
    Codec ID/Info               : UTF-8 Plain Text
    Duration                    : 2 h 9 min
    Bit rate                    : 82 b/s
    Frame rate                  : 0.212 FPS
    Count of elements           : 1646
    Stream size                 : 78.0 KiB (0%)
    Language                    : Hebrew
    Default                     : No
    Forced                      : No
    
    Text #14
    ID                          : 16
    Format                      : UTF-8
    Codec ID                    : S_TEXT/UTF8
    Codec ID/Info               : UTF-8 Plain Text
    Duration                    : 2 h 8 min
    Bit rate                    : 48 b/s
    Frame rate                  : 0.219 FPS
    Count of elements           : 1695
    Stream size                 : 45.4 KiB (0%)
    Language                    : Indonesian
    Default                     : No
    Forced                      : No
    
    Text #15
    ID                          : 17
    Format                      : UTF-8
    Codec ID                    : S_TEXT/UTF8
    Codec ID/Info               : UTF-8 Plain Text
    Duration                    : 2 h 9 min
    Bit rate                    : 48 b/s
    Frame rate                  : 0.216 FPS
    Count of elements           : 1676
    Stream size                 : 46.0 KiB (0%)
    Language                    : Korean
    Default                     : No
    Forced                      : No
    
    Text #16
    ID                          : 18
    Format                      : UTF-8
    Codec ID                    : S_TEXT/UTF8
    Codec ID/Info               : UTF-8 Plain Text
    Duration                    : 2 h 9 min
    Bit rate                    : 50 b/s
    Frame rate                  : 0.219 FPS
    Count of elements           : 1700
    Stream size                 : 47.7 KiB (0%)
    Language                    : Latvian
    Default                     : No
    Forced                      : No
    
    Text #17
    ID                          : 19
    Format                      : UTF-8
    Codec ID                    : S_TEXT/UTF8
    Codec ID/Info               : UTF-8 Plain Text
    Duration                    : 2 h 8 min
    Bit rate                    : 44 b/s
    Frame rate                  : 0.136 FPS
    Count of elements           : 1054
    Stream size                 : 41.6 KiB (0%)
    Language                    : Dutch
    Default                     : No
    Forced                      : No
    
    Text #18
    ID                          : 20
    Format                      : UTF-8
    Codec ID                    : S_TEXT/UTF8
    Codec ID/Info               : UTF-8 Plain Text
    Duration                    : 2 h 8 min
    Bit rate                    : 46 b/s
    Frame rate                  : 0.161 FPS
    Count of elements           : 1243
    Stream size                 : 44.3 KiB (0%)
    Language                    : Norwegian
    Default                     : No
    Forced                      : No
    
    Text #19
    ID                          : 21
    Format                      : UTF-8
    Codec ID                    : S_TEXT/UTF8
    Codec ID/Info               : UTF-8 Plain Text
    Duration                    : 2 h 9 min
    Bit rate                    : 43 b/s
    Frame rate                  : 0.216 FPS
    Count of elements           : 1674
    Stream size                 : 41.4 KiB (0%)
    Language                    : Polish
    Default                     : No
    Forced                      : No
    
    Text #20
    ID                          : 22
    Format                      : UTF-8
    Codec ID                    : S_TEXT/UTF8
    Codec ID/Info               : UTF-8 Plain Text
    Duration                    : 2 h 9 min
    Bit rate                    : 52 b/s
    Frame rate                  : 0.220 FPS
    Count of elements           : 1704
    Stream size                 : 49.6 KiB (0%)
    Title                       : Brazilian
    Language                    : Portuguese
    Default                     : No
    Forced                      : No
    
    Text #21
    ID                          : 23
    Format                      : UTF-8
    Codec ID                    : S_TEXT/UTF8
    Codec ID/Info               : UTF-8 Plain Text
    Duration                    : 2 h 9 min
    Bit rate                    : 56 b/s
    Frame rate                  : 0.218 FPS
    Count of elements           : 1692
    Stream size                 : 53.0 KiB (0%)
    Title                       : European
    Language                    : Portuguese
    Default                     : No
    Forced                      : No
    
    Text #22
    ID                          : 24
    Format                      : UTF-8
    Codec ID                    : S_TEXT/UTF8
    Codec ID/Info               : UTF-8 Plain Text
    Duration                    : 2 h 9 min
    Bit rate                    : 46 b/s
    Frame rate                  : 0.164 FPS
    Count of elements           : 1271
    Stream size                 : 44.3 KiB (0%)
    Language                    : Slovenian
    Default                     : No
    Forced                      : No
    
    Text #23
    ID                          : 25
    Format                      : UTF-8
    Codec ID                    : S_TEXT/UTF8
    Codec ID/Info               : UTF-8 Plain Text
    Duration                    : 2 h 8 min
    Bit rate                    : 45 b/s
    Frame rate                  : 0.146 FPS
    Count of elements           : 1126
    Stream size                 : 42.9 KiB (0%)
    Language                    : Swedish
    Default                     : No
    Forced                      : No
    
    Text #24
    ID                          : 26
    Format                      : UTF-8
    Codec ID                    : S_TEXT/UTF8
    Codec ID/Info               : UTF-8 Plain Text
    Duration                    : 2 h 9 min
    Bit rate                    : 123 b/s
    Frame rate                  : 0.221 FPS
    Count of elements           : 1716
    Stream size                 : 117 KiB (0%)
    Language                    : Thai
    Default                     : No
    Forced                      : No
    
    Text #25
    ID                          : 27
    Format                      : UTF-8
    Codec ID                    : S_TEXT/UTF8
    Codec ID/Info               : UTF-8 Plain Text
    Duration                    : 2 h 9 min
    Bit rate                    : 53 b/s
    Frame rate                  : 0.217 FPS
    Count of elements           : 1683
    Stream size                 : 50.9 KiB (0%)
    Language                    : Turkish
    Default                     : No
    Forced                      : No
    
    Text #26
    ID                          : 28
    Format                      : UTF-8
    Codec ID                    : S_TEXT/UTF8
    Codec ID/Info               : UTF-8 Plain Text
    Duration                    : 2 h 9 min
    Bit rate                    : 46 b/s
    Frame rate                  : 0.220 FPS
    Count of elements           : 1707
    Stream size                 : 44.4 KiB (0%)
    Title                       : Cantonese, Traditional
    Language                    : Chinese
    Default                     : No
    Forced                      : No
    
    Menu
    00:00:00.000                : en:Chapter 01
    00:09:52.342                : en:Chapter 02
    00:19:34.299                : en:Chapter 03
    00:25:44.627                : en:Chapter 04
    00:33:57.078                : en:Chapter 05
    00:43:35.031                : en:Chapter 06
    00:50:56.931                : en:Chapter 07
    00:57:31.034                : en:Chapter 08
    01:06:40.333                : en:Chapter 09
    01:16:39.683                : en:Chapter 10
    01:19:09.624                : en:Chapter 11
    01:28:51.122                : en:Chapter 12
    01:35:33.608                : en:Chapter 13
    01:43:01.806                : en:Chapter 14
    01:50:37.262                : en:Chapter 15
    01:57:19.122                : en:Chapter 16
    02:08:33.338                : en:Chapter 17
    Download - Mirror 1:
    Download - Mirror 2:
    Download - Mirror 3:
     
  2. Loading...


Share This Page