Google Drive Silk.Road.2021.1080p.BluRay.DD+5.1.x264-iFT

Discussion in 'BDRip | 720p/1080p' started by DDLbase, Feb 16, 2021.

  1. DDLbase

    DDLbase Administrator Staff Member

    [​IMG]

    Genres: Crime, Drama, Thriller

    Philosophical twenty-something Ross Ulbricht creates Silk Road, a dark net website that sells narcotics, while DEA agent Rick Bowden goes undercover to bring him down.

    [​IMG]
    Code:
    General
    Unique ID                   : 35489932462281669262956786893207183493 (0x1AB31CC3F98FBBA12FF3776BB0D52085)
    Complete name               : Silk.Road.2021.1080p.BluRay.DD+5.1.x264-iFT.mkv
    Format                      : Matroska
    Format version              : Version 4
    File size                   : 14.3 GiB
    Duration                    : 1 h 56 min
    Overall bit rate            : 17.5 Mb/s
    Movie name                  : Silk.Road.2021.1080p.BluRay.DD+5.1.x264-iFT
    Encoded date                : UTC 2021-02-15 14:16:52
    Writing application         : mkvmerge v53.0.0 ('Fool's Gold') 64-bit
    Writing library             : libebml v1.4.1 + libmatroska v1.6.2
    
    Video
    ID                          : 1
    Format                      : AVC
    Format/Info                 : Advanced Video Codec
    Format profile              : [email protected]
    Format settings             : CABAC / 5 Ref Frames
    Format settings, CABAC      : Yes
    Format settings, Reference  : 5 frames
    Codec ID                    : V_MPEG4/ISO/AVC
    Duration                    : 1 h 56 min
    Bit rate                    : 16.3 Mb/s
    Width                       : 1 920 pixels
    Height                      : 804 pixels
    Display aspect ratio        : 2.40:1
    Frame rate mode             : Constant
    Frame rate                  : 23.976 (24000/1001) FPS
    Color space                 : YUV
    Chroma subsampling          : 4:2:0
    Bit depth                   : 8 bits
    Scan type                   : Progressive
    Bits/(Pixel*Frame)          : 0.440
    Stream size                 : 13.3 GiB (93%)
    Writing library             : x264 core 161 r3048+58M ~ Encoded by Mocunaman in Portugal
    Encoding settings           : cabac=1 / ref=5 / deblock=1:-3:-3 / analyse=0x3:0x113 / me=umh / subme=11 / psy=1 / fade_compensate=0.00 / psy_rd=1.00:0.00 / mixed_ref=1 / me_range=32 / chroma_me=1 / trellis=2 / 8x8dct=1 / cqm=0 / deadzone=21,11 / fast_pskip=0 / chroma_qp_offset=-2 / threads=25 / lookahead_threads=6 / sliced_threads=0 / nr=0 / decimate=0 / interlaced=0 / bluray_compat=0 / constrained_intra=0 / fgo=0 / bframes=14 / b_pyramid=2 / b_adapt=2 / b_bias=0 / direct=3 / weightb=1 / open_gop=0 / weightp=2 / keyint=250 / keyint_min=23 / scenecut=40 / intra_refresh=0 / rc_lookahead=60 / rc=crf / mbtree=0 / crf=18.5000 / qcomp=0.60 / qpmin=0:0:0 / qpmax=69:69:69 / qpstep=4 / vbv_maxrate=62500 / vbv_bufsize=78125 / crf_max=0.0 / nal_hrd=none / filler=0 / ip_ratio=1.30 / pb_ratio=1.20 / aq=3:0.80 / aq-sensitivity=10.00 / aq-factor=1.00:1.00:1.00 / aq2=0 / aq3=0 / zones=0,1128,crf=16.5/4200,13128,crf=17.5/18624,21388,crf=17.5/26692,28924,crf=18/47332,49505,crf=18/50882,57938,crf=17.5/61634,63362,crf=18/83965,89593,crf=18/114812,119294,crf=17.5
    Language                    : English
    Default                     : Yes
    Forced                      : No
    Color range                 : Limited
    Color primaries             : BT.709
    Transfer characteristics    : BT.709
    Matrix coefficients         : BT.709
    
    Audio #1
    ID                          : 2
    Format                      : E-AC-3
    Format/Info                 : Enhanced AC-3
    Commercial name             : Dolby Digital Plus
    Codec ID                    : A_EAC3
    Duration                    : 1 h 56 min
    Bit rate mode               : Constant
    Bit rate                    : 1 024 kb/s
    Channel(s)                  : 6 channels
    Channel layout              : L R C LFE Ls Rs
    Sampling rate               : 48.0 kHz
    Frame rate                  : 31.250 FPS (1536 SPF)
    Compression mode            : Lossy
    Stream size                 : 855 MiB (6%)
    Title                       : E-AC3 DD+5.1 1024kbs
    Language                    : English
    Service kind                : Complete Main
    Default                     : Yes
    Forced                      : No
    
    Audio #2
    ID                          : 3
    Format                      : AC-3
    Format/Info                 : Audio Coding 3
    Commercial name             : Dolby Digital
    Codec ID                    : A_AC3
    Duration                    : 1 h 56 min
    Bit rate mode               : Constant
    Bit rate                    : 192 kb/s
    Channel(s)                  : 2 channels
    Channel layout              : L R
    Sampling rate               : 48.0 kHz
    Frame rate                  : 31.250 FPS (1536 SPF)
    Compression mode            : Lossy
    Stream size                 : 160 MiB (1%)
    Title                       : Commentary with Director: Tiller Russell /Editor Greg O'Bryant
    Language                    : English
    Service kind                : Complete Main
    Default                     : No
    Forced                      : No
    
    Text #1
    ID                          : 4
    Format                      : UTF-8
    Codec ID                    : S_TEXT/UTF8
    Codec ID/Info               : UTF-8 Plain Text
    Duration                    : 1 h 47 min
    Bit rate                    : 73 b/s
    Count of elements           : 1567
    Stream size                 : 57.7 KiB (0%)
    Title                       : Full .srt
    Language                    : English
    Default                     : No
    Forced                      : No
    
    Text #2
    ID                          : 5
    Format                      : UTF-8
    Codec ID                    : S_TEXT/UTF8
    Codec ID/Info               : UTF-8 Plain Text
    Duration                    : 1 h 48 min
    Bit rate                    : 79 b/s
    Count of elements           : 1729
    Stream size                 : 63.2 KiB (0%)
    Title                       : SDH .srt
    Language                    : English
    Default                     : No
    Forced                      : No
    
    Text #3
    ID                          : 6
    Format                      : PGS
    Muxing mode                 : zlib
    Codec ID                    : S_HDMV/PGS
    Codec ID/Info               : Picture based subtitle format used on BDs/HD-DVDs
    Duration                    : 1 h 48 min
    Bit rate                    : 42.0 kb/s
    Count of elements           : 3168
    Stream size                 : 32.7 MiB (0%)
    Title                       : Latino
    Language                    : Spanish
    Default                     : No
    Forced                      : No
    
    Menu
    00:00:00.000                : en:Chapter 01
    00:04:57.797                : en:Chapter 02
    00:10:53.987                : en:Chapter 03
    00:18:47.251                : en:Chapter 04
    00:24:07.821                : en:Chapter 05
    00:30:02.759                : en:Chapter 06
    00:34:28.733                : en:Chapter 07
    00:40:52.492                : en:Chapter 08
    00:47:19.545                : en:Chapter 09
    00:55:24.238                : en:Chapter 10
    01:04:29.074                : en:Chapter 11
    01:13:10.052                : en:Chapter 12
    01:21:47.820                : en:Chapter 13
    01:30:01.730                : en:Chapter 14
    01:37:16.164                : en:Chapter 15
    01:44:16.917                : en:Chapter 16
    Download - Mirror 1:
    Download - Mirror 2:
     
  2. Loading...


Share This Page