Google Drive Sincerely Louis CK 2020 720p WEB-DL AAC.2 0.H.264

Discussion in 'Web-DL / Webrip | 1080p' started by DDLbase, Apr 5, 2020.

  1. DDLbase

    DDLbase Administrator Staff Member

    [​IMG]

    Director: Louis C.K.
    Stars:

    Runtime: 60 minutes
    Genre: Comedy

    Rating: 9.1 / 10
    Votes: 85

    Release Date: 2020-04-04

    [​IMG]
    Code:
    General
    Complete name               : C:\Sincerely Louis CK 2020 720p WEB-DL AAC 2.0 H.264.mp4
    Format                      : MPEG-4
    Format profile              : Base Media / Version 2
    Codec ID                    : mp42 (mp42/mp41)
    File size                   : 2.19 GiB
    Duration                    : 1 h 0 min
    Overall bit rate mode       : Variable
    Overall bit rate            : 5 198 kb/s
    Performer/Sorted by         : Louis CK
    Director                    : Louis CK
    Screenplay by               : Louis CK
    Producer                    : Louis CK
    ContentType                 : Short Film
    Tagged date                 : UTC 2020-04-04 01:47:03
    Cover                       : Yes
    Rating                      : None
    TIM                         : 01:00:00:00
    TSC                         : 24000
    TSZ                         : 1001
    Title/Sort                  : Sincerely Louis CK (HD)
    AppleStoreCatalogID         : 0
    
    Video
    ID                          : 1
    Format                      : AVC
    Format/Info                 : Advanced Video Codec
    Format profile              : [email protected]
    Format settings             : CABAC / 4 Ref Frames
    Format settings, CABAC      : Yes
    Format settings, Reference  : 4 frames
    Codec ID                    : avc1
    Codec ID/Info               : Advanced Video Coding
    Duration                    : 1 h 0 min
    Source duration             : 1 h 0 min
    Bit rate                    : 5 000 kb/s
    Width                       : 1 280 pixels
    Height                      : 720 pixels
    Display aspect ratio        : 16:9
    Frame rate mode             : Constant
    Frame rate                  : 23.976 (24000/1001) FPS
    Color space                 : YUV
    Chroma subsampling          : 4:2:0
    Bit depth                   : 8 bits
    Scan type                   : Progressive
    Bits/(Pixel*Frame)          : 0.226
    Stream size                 : 2.10 GiB (96%)
    Source stream size          : 2.10 GiB (96%)
    Language                    : English
    Encoded date                : UTC 2020-04-03 19:01:48
    Tagged date                 : UTC 2020-04-03 19:01:48
    Color range                 : Limited
    Color primaries             : BT.709
    Transfer characteristics    : BT.709
    Matrix coefficients         : BT.709
    Codec configuration box     : avcC
    
    Audio
    ID                          : 2
    Format                      : AAC LC
    Format/Info                 : Advanced Audio Codec Low Complexity
    Codec ID                    : mp4a-40-2
    Duration                    : 1 h 0 min
    Source duration             : 1 h 0 min
    Bit rate mode               : Variable
    Bit rate                    : 192 kb/s
    Maximum bit rate            : 298 kb/s
    Channel(s)                  : 2 channels
    Channel layout              : L R
    Sampling rate               : 48.0 kHz
    Frame rate                  : 46.875 FPS (1024 SPF)
    Compression mode            : Lossy
    Stream size                 : 81.6 MiB (4%)
    Source stream size          : 81.6 MiB (4%)
    Language                    : English
    Encoded date                : UTC 2020-04-03 19:01:48
    Tagged date                 : UTC 2020-04-03 19:01:48
    Download - Mirror 1:
    Download - Mirror 2:
     
  2. Loading...

    Similar Threads - Sincerely Louis 2020
    1. DDLbase
      Replies:
      0
      Views:
      1,098
    2. DDLbase
      Replies:
      0
      Views:
      928

Share This Page