Google Drive Sinful.2020.1080p.AMZN.WEB-DL.DDP5.1.H.264-iKA

Discussion in 'Web-DL / Webrip | 1080p' started by DDLbase, Aug 3, 2020.

  1. DDLbase

    DDLbase Administrator Staff Member

    [​IMG]

    Rating: 6.7/10 based on 237 user ratings

    Genre: Thriller

    On the run after committing a horrific crime, newlywed couple Remy and Salem find themselves trapped in a mysterious house as a terrifying darkness closes in on them.

    [​IMG]
    Code:
    General
    Unique ID                   : 35347149044354189517183571407330701178 (0x1A979CFFDFB010B61E8B7B4517F16F7A)
    Complete name               : Sinful.2020.1080p.AMZN.WEB-DL.DDP5.1.H.264-iKA.mkv
    Format                      : Matroska
    Format version              : Version 4
    File size                   : 2.84 GiB
    Duration                    : 1 h 14 min
    Overall bit rate            : 5 446 kb/s
    Encoded date                : UTC 2020-08-02 19:28:31
    Writing application         : mkvmerge v48.0.0 ('Fortress Around Your Heart') 64-bit
    Writing library             : libebml v1.4.0 + libmatroska v1.6.0
    
    Video
    ID                          : 1
    Format                      : AVC
    Format/Info                 : Advanced Video Codec
    Format profile              : [email protected]
    Format settings             : CABAC / 4 Ref Frames
    Format settings, CABAC      : Yes
    Format settings, Reference  : 4 frames
    Codec ID                    : V_MPEG4/ISO/AVC
    Duration                    : 1 h 14 min
    Bit rate mode               : Constant
    Bit rate                    : 4 804 kb/s
    Nominal bit rate            : 10 000 kb/s
    Width                       : 1 920 pixels
    Height                      : 800 pixels
    Display aspect ratio        : 2.40:1
    Frame rate mode             : Constant
    Frame rate                  : 23.976 (24000/1001) FPS
    Color space                 : YUV
    Chroma subsampling          : 4:2:0
    Bit depth                   : 8 bits
    Scan type                   : Progressive
    Bits/(Pixel*Frame)          : 0.130
    Stream size                 : 2.51 GiB (88%)
    Default                     : Yes
    Forced                      : No
    Color range                 : Limited
    Color primaries             : BT.709
    Transfer characteristics    : BT.709
    Matrix coefficients         : BT.709
    
    Audio
    ID                          : 2
    Format                      : E-AC-3
    Format/Info                 : Enhanced AC-3
    Commercial name             : Dolby Digital Plus
    Codec ID                    : A_EAC3
    Duration                    : 1 h 14 min
    Bit rate mode               : Constant
    Bit rate                    : 640 kb/s
    Channel(s)                  : 6 channels
    Channel layout              : L R C LFE Ls Rs
    Sampling rate               : 48.0 kHz
    Frame rate                  : 31.250 FPS (1536 SPF)
    Compression mode            : Lossy
    Stream size                 : 342 MiB (12%)
    Language                    : English
    Service kind                : Complete Main
    Default                     : Yes
    Forced                      : No
    
    Text
    ID                          : 3
    Format                      : UTF-8
    Codec ID                    : S_TEXT/UTF8
    Codec ID/Info               : UTF-8 Plain Text
    Duration                    : 1 h 14 min
    Bit rate                    : 33 b/s
    Count of elements           : 785
    Stream size                 : 18.4 KiB (0%)
    Title                       : SDH
    Language                    : English
    Default                     : No
    Forced                      : No
    Download - Mirror 1:
    Download - Mirror 2:
     
  2. Loading...


Share This Page