Google Drive Skate.Kitchen.2018.1080p.BluRay.X264-AMIABLE

Discussion in 'BDRip | 720p/1080p' started by DDLbase, Oct 14, 2020.

  1. DDLbase

    DDLbase Administrator Staff Member

    [​IMG]

    Rating: 6.8/10 based on 3,484 user ratings

    Genre: Drama

    A teenaged skateboarder makes friends with a bunch of other skateboarding girls in New York City.

    [​IMG]
    Code:
    General
    Unique ID                   : 0 (0x0)
    Complete name               :
    Skate.Kitchen.2018.1080p.BluRay.X264-AMIABLE.mkv
    Format                      : Matroska
    Format version              : Version 4
    File size                   : 10.9 GiB
    Duration                    : 1 h 45 min
    Overall bit rate            : 14.8 Mb/s
    Encoded date                : UTC 2010-02-22 21:41:29
    Writing application         : no_variable_data
    Writing library             : no_variable_data
    
    Video
    ID                          : 1
    Format                      : AVC
    Format/Info                 : Advanced Video Codec
    Format profile              : [email protected]
    Format settings             : CABAC / 4 Ref Frames
    Format settings, CABAC      : Yes
    Format settings, Reference  : 4 frames
    Codec ID                    : V_MPEG4/ISO/AVC
    Duration                    : 1 h 45 min
    Bit rate                    : 13.3 Mb/s
    Width                       : 1 920 pixels
    Height                      : 1 040 pixels
    Display aspect ratio        : 1.85:1
    Frame rate mode             : Constant
    Frame rate                  : 23.976 (24000/1001) FPS
    Color space                 : YUV
    Chroma subsampling          : 4:2:0
    Bit depth                   : 8 bits
    Scan type                   : Progressive
    Bits/(Pixel*Frame)          : 0.278
    Stream size                 : 9.60 GiB (88%)
    Writing library             : x264 core 157 r2935 545de2f
    Encoding settings           : cabac=1 / ref=4 / deblock=1:-3:-3 / analyse=0x3:0x113 / me=umh / subme=8 / psy=1 / psy_rd=1.00:0.00 / mixed_ref=1 / me_range=48 / chroma_me=1 / trellis=2 / 8x8dct=1 / cqm=0 / deadzone=21,11 / fast_pskip=1 / chroma_qp_offset=-2 / threads=32 / lookahead_threads=5 / sliced_threads=0 / nr=0 / decimate=1 / interlaced=0 / bluray_compat=0 / constrained_intra=0 / bframes=3 / b_pyramid=2 / b_adapt=2 / b_bias=0 / direct=3 / weightb=1 / open_gop=0 / weightp=2 / keyint=240 / keyint_min=24 / scenecut=40 / intra_refresh=0 / rc_lookahead=50 / rc=2pass / mbtree=1 / bitrate=13292 / ratetol=1.0 / qcomp=0.60 / qpmin=0 / qpmax=69 / qpstep=4 / cplxblur=20.0 / qblur=0.5 / ip_ratio=1.40 / aq=3:0.80
    Default                     : Yes
    Forced                      : No
    Statistics Tags Issue       : no_variable_data 1970-01-01 00:00:00 / no_variable_data 2010-02-22 21:41:29
    FromStats_BitRate           : 13288384
    FromStats_Duration          : 01:45:43.796000000
    FromStats_FrameCount        : 152099
    FromStats_StreamSize        : 10537349714
    
    Audio
    ID                          : 2
    Format                      : DTS
    Format/Info                 : Digital Theater Systems
    Codec ID                    : A_DTS
    Duration                    : 1 h 45 min
    Bit rate mode               : Constant
    Bit rate                    : 1 509 kb/s
    Channel(s)                  : 6 channels
    Channel layout              : C L R Ls Rs LFE
    Sampling rate               : 48.0 kHz
    Frame rate                  : 93.750 FPS (512 SPF)
    Bit depth                   : 24 bits
    Compression mode            : Lossy
    Stream size                 : 1.11 GiB (10%)
    Language                    : English
    Default                     : Yes
    Forced                      : No
    Statistics Tags Issue       : no_variable_data 1970-01-01 00:00:00 / no_variable_data 2010-02-22 21:41:29
    FromStats_BitRate           : 1508999
    FromStats_Duration          : 01:45:43.787000000
    FromStats_FrameCount        : 594730
    FromStats_StreamSize        : 1196596760
    
    Text #1
    ID                          : 3
    Format                      : UTF-8
    Codec ID                    : S_TEXT/UTF8
    Codec ID/Info               : UTF-8 Plain Text
    Language                    : English
    Default                     : No
    Forced                      : No
    Statistics Tags Issue       : no_variable_data 1970-01-01 00:00:00 / no_variable_data 2010-02-22 21:41:29
    FromStats_BitRate           : 61
    FromStats_Duration          : 01:43:57.314000000
    FromStats_FrameCount        : 1426
    FromStats_StreamSize        : 47753
    
    Text #2
    ID                          : 4
    Format                      : UTF-8
    Codec ID                    : S_TEXT/UTF8
    Codec ID/Info               : UTF-8 Plain Text
    Title                       : SDH
    Language                    : English
    Default                     : No
    Forced                      : No
    Statistics Tags Issue       : no_variable_data 1970-01-01 00:00:00 / no_variable_data 2010-02-22 21:41:29
    FromStats_BitRate           : 69
    FromStats_Duration          : 01:44:51.869000000
    FromStats_FrameCount        : 1537
    FromStats_StreamSize        : 54727
    
    Menu
    00:00:00.000                : en:00:00:00.000
    00:06:25.385                : en:00:06:25.385
    00:14:31.871                : en:00:14:31.871
    00:22:28.347                : en:00:22:28.347
    00:28:14.693                : en:00:28:14.693
    00:31:31.890                : en:00:31:31.890
    00:40:02.400                : en:00:40:02.400
    00:47:42.860                : en:00:47:42.860
    00:53:43.220                : en:00:53:43.220
    00:59:29.566                : en:00:59:29.566
    01:06:21.978                : en:01:06:21.978
    01:13:07.383                : en:01:13:07.383
    01:21:16.872                : en:01:21:16.872
    01:27:48.472                : en:01:27:48.472
    01:35:11.706                : en:01:35:11.706
    01:40:30.024                : en:01:40:30.024
    Download:
     
  2. Loading...

    Similar Threads - Skate Kitchen 2018
    1. DDLbase
      Replies:
      0
      Views:
      373
    2. DDLbase
      Replies:
      0
      Views:
      962

Share This Page