Google Drive Skin.Deep.1989.1080p.BluRay.x264-GUACAMOLE

Discussion in 'BDRip | 720p/1080p' started by DDLbase, Apr 1, 2021.

  1. DDLbase

    DDLbase Administrator Staff Member

    [​IMG]

    Rating: 6.2/10 based on 4,113 user ratings

    Genres: Comedy, Drama, Romance

    A womanizing alcoholic writer, whose life seems to be falling apart at the seams, repeatedly finds himself in trouble of one sort or another with the law, ex-girlfriends, and jealous boyfriends.

    [​IMG]
    Code:
    General
    Unique ID                   : 209828642049233801919767869295024226604 (0x9DDB86C821CF3249B1DDA1E61F75412C)
    Complete name               : Skin.Deep.1989.1080p.BluRay.x264-GUACAMOLE.mkv
    Format                      : Matroska
    Format version              : Version 4
    File size                   : 9.91 GiB
    Duration                    : 1 h 41 min
    Overall bit rate mode       : Variable
    Overall bit rate            : 14.0 Mb/s
    Encoded date                : UTC 2020-12-25 12:45:23
    Writing application         : mkvmerge v9.0.1 ('Obstacles') 64bit
    Writing library             : libebml v1.3.3 + libmatroska v1.4.4
    
    Video
    ID                          : 1
    Format                      : AVC
    Format/Info                 : Advanced Video Codec
    Format profile              : [email protected]
    Format settings             : CABAC / 5 Ref Frames
    Format settings, CABAC      : Yes
    Format settings, Reference  : 5 frames
    Codec ID                    : V_MPEG4/ISO/AVC
    Duration                    : 1 h 41 min
    Bit rate                    : 12.6 Mb/s
    Width                       : 1 920 pixels
    Height                      : 822 pixels
    Display aspect ratio        : 2.35:1
    Frame rate mode             : Constant
    Frame rate                  : 23.976 (24000/1001) FPS
    Color space                 : YUV
    Chroma subsampling          : 4:2:0
    Bit depth                   : 8 bits
    Scan type                   : Progressive
    Bits/(Pixel*Frame)          : 0.334
    Stream size                 : 8.94 GiB (90%)
    Writing library             : x264 core 161 r3027 4121277
    Encoding settings           : cabac=1 / ref=5 / deblock=1:-3:-3 / analyse=0x3:0x133 / me=umh / subme=9 / psy=1 / psy_rd=1.00:0.00 / mixed_ref=1 / me_range=16 / chroma_me=1 / trellis=2 / 8x8dct=1 / cqm=0 / deadzone=21,11 / fast_pskip=0 / chroma_qp_offset=-2 / threads=24 / lookahead_threads=2 / sliced_threads=0 / nr=0 / decimate=1 / interlaced=0 / bluray_compat=0 / constrained_intra=0 / bframes=3 / b_pyramid=2 / b_adapt=2 / b_bias=0 / direct=3 / weightb=1 / open_gop=0 / weightp=2 / keyint=250 / keyint_min=23 / scenecut=40 / intra_refresh=0 / rc_lookahead=60 / rc=crf / mbtree=1 / crf=17.0 / qcomp=0.60 / qpmin=0 / qpmax=69 / qpstep=4 / ip_ratio=1.40 / aq=3:0.60
    Default                     : Yes
    Forced                      : No
    Color range                 : Limited
    Color primaries             : BT.709
    Transfer characteristics    : BT.709
    Matrix coefficients         : BT.709
    
    Audio
    ID                          : 2
    Format                      : FLAC
    Format/Info                 : Free Lossless Audio Codec
    Codec ID                    : A_FLAC
    Duration                    : 1 h 41 min
    Bit rate mode               : Variable
    Bit rate                    : 1 376 kb/s
    Channel(s)                  : 2 channels
    Channel layout              : L R
    Sampling rate               : 48.0 kHz
    Frame rate                  : 11.719 FPS (4096 SPF)
    Bit depth                   : 24 bits
    Compression mode            : Lossless
    Stream size                 : 997 MiB (10%)
    Writing library             : libFLAC 1.2.1 (UTC 2007-09-17)
    Language                    : English
    Default                     : Yes
    Forced                      : No
    
    Menu
    00:00:00.000                : en:00:00:00.000
    00:04:58.298                : en:00:04:58.298
    00:14:34.874                : en:00:14:34.874
    00:23:55.434                : en:00:23:55.434
    00:28:37.716                : en:00:28:37.716
    00:36:07.165                : en:00:36:07.165
    00:44:16.654                : en:00:44:16.654
    00:50:39.036                : en:00:50:39.036
    01:01:50.707                : en:01:01:50.707
    01:15:01.497                : en:01:15:01.497
    01:20:11.807                : en:01:20:11.807
    01:28:21.296                : en:01:28:21.296
    01:40:57.051                : en:01:40:57.051
    Download - Mirror 1:
    Download - Mirror 2:
     
  2. Loading...


Share This Page