Google Drive Sleepless.In.Seattle.1993.2160p.WEB.H265-HEATHEN

Discussion in 'Web-DL / Webrip | 4K' started by DDLbase, Jan 9, 2023.

  1. DDLbase

    DDLbase Administrator Staff Member

    [​IMG]

    Rating: 6.8/10 based on 179,001 user ratings

    Genres: Comedy, Drama, Romance

    A recently widowed man's son calls a radio talk-show in an attempt to find his father a partner.

    [​IMG]
    Code:
    General
    Unique ID                   : 1614823011957646920516120354380238292 (0x13700EBE343D9FCC8A523BC3C4ECDD4)
    Complete name               : Sleepless.In.Seattle.1993.2160p.WEB.H265-HEATHEN.mkv
    Format                      : Matroska
    Format version              : Version 4
    File size                   : 11.3 GiB
    Duration                    : 1 h 45 min
    Overall bit rate            : 15.4 Mb/s
    Writing application         : mkvmerge v66.0.0 ('Josie') 64-bit
    Writing library             : libebml v1.4.2 + libmatroska v1.6.4
    
    Video
    ID                          : 1
    Format                      : HEVC
    Format/Info                 : High Efficiency Video Coding
    Format profile              : [email protected]@High
    Codec ID                    : V_MPEGH/ISO/HEVC
    Duration                    : 1 h 45 min
    Bit rate                    : 15.0 Mb/s
    Width                       : 3 840 pixels
    Height                      : 2 160 pixels
    Display aspect ratio        : 16:9
    Frame rate mode             : Constant
    Frame rate                  : 23.976 (23976/1000) FPS
    Original frame rate         : 23.976 (24000/1001) FPS
    Color space                 : YUV
    Chroma subsampling          : 4:2:0
    Bit depth                   : 8 bits
    Bits/(Pixel*Frame)          : 0.075
    Stream size                 : 11.0 GiB (97%)
    Default                     : Yes
    Forced                      : No
    Color range                 : Limited
    Color primaries             : BT.709
    Transfer characteristics    : BT.709
    Matrix coefficients         : BT.709
    
    Audio
    ID                          : 2
    Format                      : AAC LC
    Format/Info                 : Advanced Audio Codec Low Complexity
    Codec ID                    : A_AAC-2
    Duration                    : 1 h 45 min
    Bit rate                    : 445 kb/s
    Channel(s)                  : 6 channels
    Channel layout              : C L R Ls Rs LFE
    Sampling rate               : 48.0 kHz
    Frame rate                  : 46.875 FPS (1024 SPF)
    Compression mode            : Lossy
    Stream size                 : 335 MiB (3%)
    Title                       : English
    Language                    : English
    Default                     : Yes
    Forced                      : No
    
    Text
    ID                          : 3
    Format                      : UTF-8
    Codec ID                    : S_TEXT/UTF8
    Codec ID/Info               : UTF-8 Plain Text
    Duration                    : 1 h 40 min
    Bit rate                    : 69 b/s
    Frame rate                  : 0.310 FPS
    Count of elements           : 1867
    Stream size                 : 50.9 KiB (0%)
    Title                       : English (SDH)
    Language                    : English
    Default                     : No
    Forced                      : No
    Download - Mirror 1:
    Download - Mirror 2:
     

Share This Page