Google Drive Sniper.The.White.Raven.2022.1080p.AMZN.WEB-DL.DDP5.1.H.264-EVO

Discussion in 'Web-DL / Webrip | 1080p' started by DDLbase, Jul 27, 2022.

  1. DDLbase

    DDLbase Administrator Staff Member

    [​IMG]

    Rating: 7.8/10 based on 75 user ratings

    Genres: Drama, War

    After suffering a tragedy at the hand of invading soldiers in Donbas, an Ukrainian physics teacher seeks revenge. He sets his sights on an elite Russian sniper whose elimination could change the tide of the conflict.

    [​IMG]
    Code:
    General
    Unique ID                   : 163616226517693242472898201369293069914 (0x7B1756C8F4186D2C6FF547FDE21B9E5A)
    Complete name               : Sniper.The.White.Raven.2022.1080p.AMZN.WEB-DL.DDP5.1.H.264-EVO.mkv
    Format                      : Matroska
    Format version              : Version 4
    File size                   : 6.70 GiB
    Duration                    : 1 h 51 min
    Overall bit rate            : 8 592 kb/s
    Encoded date                : UTC 2022-07-26 22:49:15
    Writing application         : mkvmerge v67.0.0 ('Under Stars') 64-bit
    Writing library             : libebml v1.4.2 + libmatroska v1.6.4
    
    Video
    ID                          : 1
    Format                      : AVC
    Format/Info                 : Advanced Video Codec
    Format profile              : [email protected]
    Format settings             : CABAC / 4 Ref Frames
    Format settings, CABAC      : Yes
    Format settings, Reference  : 4 frames
    Codec ID                    : V_MPEG4/ISO/AVC
    Duration                    : 1 h 51 min
    Bit rate mode               : Constant
    Bit rate                    : 7 781 kb/s
    Nominal bit rate            : 10 000 kb/s
    Width                       : 1 920 pixels
    Height                      : 800 pixels
    Display aspect ratio        : 2.40:1
    Frame rate mode             : Constant
    Frame rate                  : 24.000 FPS
    Color space                 : YUV
    Chroma subsampling          : 4:2:0
    Bit depth                   : 8 bits
    Scan type                   : Progressive
    Bits/(Pixel*Frame)          : 0.211
    Stream size                 : 6.07 GiB (91%)
    Default                     : Yes
    Forced                      : No
    Color range                 : Limited
    Color primaries             : BT.709
    Transfer characteristics    : BT.709
    Matrix coefficients         : BT.709
    
    Audio
    ID                          : 2
    Format                      : E-AC-3
    Format/Info                 : Enhanced AC-3
    Commercial name             : Dolby Digital Plus
    Codec ID                    : A_EAC3
    Duration                    : 1 h 51 min
    Bit rate mode               : Constant
    Bit rate                    : 640 kb/s
    Channel(s)                  : 6 channels
    Channel layout              : L R C LFE Ls Rs
    Sampling rate               : 48.0 kHz
    Frame rate                  : 31.250 FPS (1536 SPF)
    Compression mode            : Lossy
    Stream size                 : 511 MiB (7%)
    Language                    : Ukrainian
    Service kind                : Complete Main
    Default                     : Yes
    Forced                      : No
    
    Text
    ID                          : 3
    Format                      : UTF-8
    Codec ID                    : S_TEXT/UTF8
    Codec ID/Info               : UTF-8 Plain Text
    Language                    : English
    Default                     : Yes
    Forced                      : Yes
    Download - Mirror 1:
    Download - Mirror 2:
     
  2. Loading...


Share This Page