Google Drive Snow White And The Huntsman 2012 EXTENDED 2160p BluRay REMUX HEVC DTS-X 7.1-FGT

Discussion in 'BD REMUX | 4K' started by DDLbase, Apr 5, 2020.

  1. DDLbase

    DDLbase Administrator Staff Member

    [​IMG]

    Genres: Action, Adventure, Drama, Fantasy, Romance, Thriller

    In a twist to the fairy tale, the Huntsman ordered to take Snow White into the woods to be killed winds up becoming her protector and mentor in a quest to vanquish the Evil Queen.

    [​IMG][​IMG]

    Code:
    General
    Complete name                            : Snow.White.And.The.Huntsman.2012.EXTENDED.2160p.BluRay.REMUX.HEVC.DTS-X.7.1-FGT.mkv
    Format                                  : Matroska
    Format version                          : Version 4 / Version 2
    File size                                : 52.6 GiB
    Duration                                : 2 h 11 min
    Overall bit rate                        : 57.3 Mb/s
    Movie name                              : Snow.White.And.The.Huntsman.2012.EXTENDED.2160p.BluRay.REMUX.HEVC.DTS-X.7.1-FGT
    Encoded date                            : UTC 2018-01-10 18:44:22
    Writing application                      : mkvmerge v19.0.0 ('Brave Captain') 64-bit
    Writing library                          : libebml v1.3.5 + libmatroska v1.4.8
    Cover                                    : Yes
    Attachments                              : cover_land.jpg / small_cover.jpg / small_cover_land.jpg / cover.jpg
    
    Video
    ID                                      : 1
    Format                                  : HEVC
    Format/Info                              : High Efficiency Video Coding
    Format profile                          : Main [email protected]@High
    Codec ID                                : V_MPEGH/ISO/HEVC
    Duration                                : 2 h 11 min
    Bit rate                                : 48.8 Mb/s
    Width                                    : 3 840 pixels
    Height                                  : 2 160 pixels
    Display aspect ratio                    : 16:9
    Frame rate mode                          : Constant
    Frame rate                              : 23.976 (24000/1001) FPS
    Color space                              : YUV
    Chroma subsampling                      : 4:2:0 (Type 2)
    Bit depth                                : 10 bits
    Bits/(Pixel*Frame)                      : 0.246
    Stream size                              : 44.8 GiB (85%)
    Title                                    : Snow.White.And.The.Huntsman.2012.EXTENDED.2160p.BluRay.REMUX.HEVC.DTS-X.7.1-FGT
    Writing library                          : ATEME Titan KFE 3.7.3 (4.7.3.1003)
    Default                                  : Yes
    Forced                                  : No
    Color range                              : Limited
    Color primaries                          : BT.2020
    Transfer characteristics                : PQ
    Matrix coefficients                      : BT.2020 non-constant
    Mastering display color primaries        : Display P3
    Mastering display luminance              : min: 0.0050 cd/m2, max: 1000 cd/m2
    Maximum Content Light Level              : 1000 cd/m2
    Maximum Frame-Average Light Level        : 400 cd/m2
    
    Audio #1
    ID                                      : 2
    Format                                  : DTS
    Format/Info                              : Digital Theater Systems
    Codec ID                                : A_DTS
    Duration                                : 2 h 11 min
    Bit rate mode                            : Constant
    Bit rate                                : 768 kb/s
    Channel(s)                              : 6 channels
    Channel positions                        : Front: L C R, Side: L R, LFE
    Sampling rate                            : 48.0 kHz
    Frame rate                              : 93.750 FPS (512 SPF)
    Bit depth                                : 24 bits
    Compression mode                        : Lossy
    Stream size                              : 722 MiB (1%)
    Title                                    : Snow.White.And.The.Huntsman.2012.EXTENDED.2160p.BluRay.REMUX.HEVC.DTS-X.7.1-FGT
    Language                                : Japanese
    Default                                  : Yes
    Forced                                  : No
    
    Audio #2
    ID                                      : 3
    Format                                  : DTS
    Format/Info                              : Digital Theater Systems
    Format profile                          : X / MA / Core
    Codec ID                                : A_DTS
    Duration                                : 2 h 11 min
    Bit rate mode                            : Variable / Variable / Constant
    Bit rate                                : 3 840 kb/s / 3 840 kb/s / 1 509 kb/s
    Channel(s)                              : Object Based / 8 channels / 6 channels
    Channel positions                        : Object Based / Front: L C R, Side: L R, Back: L R, LFE / Front: L C R, Side: L R, LFE
    Sampling rate                            :  / 48.0 kHz / 48.0 kHz
    Frame rate                              : 93.750 FPS (512 SPF)
    Bit depth                                :  / 24 bits / 24 bits
    Compression mode                        :  / Lossless / Lossy
    Stream size                              : 3.50 GiB (7%)
    Title                                    : Snow.White.And.The.Huntsman.2012.EXTENDED.2160p.BluRay.REMUX.HEVC.DTS-X.7.1-FGT
    Language                                : English
    Default                                  : No
    Forced                                  : No
    
    Audio #3
    ID                                      : 4
    Format                                  : DTS
    Format/Info                              : Digital Theater Systems
    Codec ID                                : A_DTS
    Duration                                : 2 h 11 min
    Bit rate mode                            : Constant
    Bit rate                                : 255 kb/s
    Channel(s)                              : 2 channels
    Channel positions                        : Front: L R
    Sampling rate                            : 48.0 kHz
    Frame rate                              : 93.750 FPS (512 SPF)
    Bit depth                                : 24 bits
    Compression mode                        : Lossy
    Stream size                              : 240 MiB (0%)
    Title                                    : Snow.White.And.The.Huntsman.2012.EXTENDED.2160p.BluRay.REMUX.HEVC.DTS-X.7.1-FGT
    Language                                : English
    Default                                  : No
    Forced                                  : No
    
    Audio #4
    ID                                      : 5
    Format                                  : DTS
    Format/Info                              : Digital Theater Systems
    Codec ID                                : A_DTS
    Duration                                : 2 h 11 min
    Bit rate mode                            : Constant
    Bit rate                                : 768 kb/s
    Channel(s)                              : 6 channels
    Channel positions                        : Front: L C R, Side: L R, LFE
    Sampling rate                            : 48.0 kHz
    Frame rate                              : 93.750 FPS (512 SPF)
    Bit depth                                : 24 bits
    Compression mode                        : Lossy
    Stream size                              : 722 MiB (1%)
    Title                                    : Snow.White.And.The.Huntsman.2012.EXTENDED.2160p.BluRay.REMUX.HEVC.DTS-X.7.1-FGT
    Language                                : French
    Default                                  : No
    Forced                                  : No
    
    Audio #5
    ID                                      : 6
    Format                                  : DTS
    Format/Info                              : Digital Theater Systems
    Codec ID                                : A_DTS
    Duration                                : 2 h 11 min
    Bit rate mode                            : Constant
    Bit rate                                : 768 kb/s
    Channel(s)                              : 6 channels
    Channel positions                        : Front: L C R, Side: L R, LFE
    Sampling rate                            : 48.0 kHz
    Frame rate                              : 93.750 FPS (512 SPF)
    Bit depth                                : 24 bits
    Compression mode                        : Lossy
    Stream size                              : 722 MiB (1%)
    Title                                    : Snow.White.And.The.Huntsman.2012.EXTENDED.2160p.BluRay.REMUX.HEVC.DTS-X.7.1-FGT
    Language                                : German
    Default                                  : No
    Forced                                  : No
    
    Audio #6
    ID                                      : 7
    Format                                  : DTS
    Format/Info                              : Digital Theater Systems
    Codec ID                                : A_DTS
    Duration                                : 2 h 11 min
    Bit rate mode                            : Constant
    Bit rate                                : 768 kb/s
    Channel(s)                              : 6 channels
    Channel positions                        : Front: L C R, Side: L R, LFE
    Sampling rate                            : 48.0 kHz
    Frame rate                              : 93.750 FPS (512 SPF)
    Bit depth                                : 24 bits
    Compression mode                        : Lossy
    Stream size                              : 722 MiB (1%)
    Title                                    : Snow.White.And.The.Huntsman.2012.EXTENDED.2160p.BluRay.REMUX.HEVC.DTS-X.7.1-FGT
    Language                                : Italian
    Default                                  : No
    Forced                                  : No
    
    Audio #7
    ID                                      : 8
    Format                                  : DTS
    Format/Info                              : Digital Theater Systems
    Codec ID                                : A_DTS
    Duration                                : 2 h 11 min
    Bit rate mode                            : Constant
    Bit rate                                : 768 kb/s
    Channel(s)                              : 6 channels
    Channel positions                        : Front: L C R, Side: L R, LFE
    Sampling rate                            : 48.0 kHz
    Frame rate                              : 93.750 FPS (512 SPF)
    Bit depth                                : 24 bits
    Compression mode                        : Lossy
    Stream size                              : 722 MiB (1%)
    Title                                    : Snow.White.And.The.Huntsman.2012.EXTENDED.2160p.BluRay.REMUX.HEVC.DTS-X.7.1-FGT
    Language                                : Turkish
    Default                                  : No
    Forced                                  : No
    
    Audio #8
    ID                                      : 9
    Format                                  : AC-3
    Format/Info                              : Audio Coding 3
    Codec ID                                : A_AC3
    Duration                                : 2 h 11 min
    Bit rate mode                            : Constant
    Bit rate                                : 192 kb/s
    Channel(s)                              : 2 channels
    Channel positions                        : Front: L R
    Sampling rate                            : 48.0 kHz
    Frame rate                              : 31.250 FPS (1536 SPF)
    Bit depth                                : 16 bits
    Compression mode                        : Lossy
    Stream size                              : 181 MiB (0%)
    Title                                    : Snow.White.And.The.Huntsman.2012.EXTENDED.2160p.BluRay.REMUX.HEVC.DTS-X.7.1-FGT
    Language                                : English
    Service kind                            : Complete Main
    Default                                  : No
    Forced                                  : No
    
    Audio #9
    ID                                      : 10
    Format                                  : AC-3
    Format/Info                              : Audio Coding 3
    Codec ID                                : A_AC3
    Duration                                : 2 h 11 min
    Bit rate mode                            : Constant
    Bit rate                                : 192 kb/s
    Channel(s)                              : 2 channels
    Channel positions                        : Front: L R
    Sampling rate                            : 48.0 kHz
    Frame rate                              : 31.250 FPS (1536 SPF)
    Bit depth                                : 16 bits
    Compression mode                        : Lossy
    Stream size                              : 181 MiB (0%)
    Title                                    : Snow.White.And.The.Huntsman.2012.EXTENDED.2160p.BluRay.REMUX.HEVC.DTS-X.7.1-FGT
    Language                                : English
    Service kind                            : Complete Main
    Default                                  : No
    Forced                                  : No
    
    Text #1
    ID                                      : 11
    Format                                  : PGS
    Muxing mode                              : zlib
    Codec ID                                : S_HDMV/PGS
    Codec ID/Info                            : Picture based subtitle format used on BDs/HD-DVDs
    Duration                                : 1 h 59 min
    Bit rate                                : 19.4 kb/s
    Count of elements                        : 2112
    Stream size                              : 16.7 MiB (0%)
    Title                                    : English-PGS
    Language                                : English
    Default                                  : Yes
    Forced                                  : No
    
    Text #2
    ID                                      : 12
    Format                                  : PGS
    Muxing mode                              : zlib
    Codec ID                                : S_HDMV/PGS
    Codec ID/Info                            : Picture based subtitle format used on BDs/HD-DVDs
    Duration                                : 1 h 59 min
    Bit rate                                : 12.0 kb/s
    Count of elements                        : 1606
    Stream size                              : 10.3 MiB (0%)
    Title                                    : Japanese-PGS
    Language                                : Japanese
    Default                                  : No
    Forced                                  : No
    
    Text #3
    ID                                      : 13
    Format                                  : PGS
    Muxing mode                              : zlib
    Codec ID                                : S_HDMV/PGS
    Codec ID/Info                            : Picture based subtitle format used on BDs/HD-DVDs
    Duration                                : 2 h 10 min
    Bit rate                                : 14.1 kb/s
    Count of elements                        : 1796
    Stream size                              : 13.1 MiB (0%)
    Title                                    : French-PGS
    Language                                : French
    Default                                  : No
    Forced                                  : No
    
    Text #4
    ID                                      : 14
    Format                                  : PGS
    Muxing mode                              : zlib
    Codec ID                                : S_HDMV/PGS
    Codec ID/Info                            : Picture based subtitle format used on BDs/HD-DVDs
    Duration                                : 2 h 10 min
    Bit rate                                : 17.3 kb/s
    Count of elements                        : 1818
    Stream size                              : 16.1 MiB (0%)
    Title                                    : German-PGS
    Language                                : German
    Default                                  : No
    Forced                                  : No
    
    Text #5
    ID                                      : 15
    Format                                  : PGS
    Muxing mode                              : zlib
    Codec ID                                : S_HDMV/PGS
    Codec ID/Info                            : Picture based subtitle format used on BDs/HD-DVDs
    Duration                                : 2 h 10 min
    Bit rate                                : 15.3 kb/s
    Count of elements                        : 1816
    Stream size                              : 14.3 MiB (0%)
    Title                                    : Italian-PGS
    Language                                : Italian
    Default                                  : No
    Forced                                  : No
    
    Text #6
    ID                                      : 16
    Format                                  : PGS
    Muxing mode                              : zlib
    Codec ID                                : S_HDMV/PGS
    Codec ID/Info                            : Picture based subtitle format used on BDs/HD-DVDs
    Duration                                : 2 h 10 min
    Bit rate                                : 15.0 kb/s
    Count of elements                        : 1604
    Stream size                              : 14.0 MiB (0%)
    Title                                    : Swedish-PGS
    Language                                : Swedish
    Default                                  : No
    Forced                                  : No
    
    Text #7
    ID                                      : 17
    Format                                  : PGS
    Muxing mode                              : zlib
    Codec ID                                : S_HDMV/PGS
    Codec ID/Info                            : Picture based subtitle format used on BDs/HD-DVDs
    Duration                                : 2 h 10 min
    Bit rate                                : 14.1 kb/s
    Count of elements                        : 1416
    Stream size                              : 13.2 MiB (0%)
    Title                                    : Danish-PGS
    Language                                : Danish
    Default                                  : No
    Forced                                  : No
    
    Text #8
    ID                                      : 18
    Format                                  : PGS
    Muxing mode                              : zlib
    Codec ID                                : S_HDMV/PGS
    Codec ID/Info                            : Picture based subtitle format used on BDs/HD-DVDs
    Duration                                : 2 h 10 min
    Bit rate                                : 14.9 kb/s
    Count of elements                        : 1778
    Stream size                              : 14.0 MiB (0%)
    Title                                    : Finnish-PGS
    Language                                : Finnish
    Default                                  : No
    Forced                                  : No
    
    Text #9
    ID                                      : 19
    Format                                  : PGS
    Muxing mode                              : zlib
    Codec ID                                : S_HDMV/PGS
    Codec ID/Info                            : Picture based subtitle format used on BDs/HD-DVDs
    Duration                                : 2 h 10 min
    Bit rate                                : 14.6 kb/s
    Count of elements                        : 1574
    Stream size                              : 13.6 MiB (0%)
    Title                                    : Dutch-PGS
    Language                                : Dutch
    Default                                  : No
    Forced                                  : No
    
    Text #10
    ID                                      : 20
    Format                                  : PGS
    Muxing mode                              : zlib
    Codec ID                                : S_HDMV/PGS
    Codec ID/Info                            : Picture based subtitle format used on BDs/HD-DVDs
    Duration                                : 2 h 10 min
    Bit rate                                : 13.6 kb/s
    Count of elements                        : 1686
    Stream size                              : 12.7 MiB (0%)
    Title                                    : Norwegian-PGS
    Language                                : Norwegian
    Default                                  : No
    Forced                                  : No
    
    Text #11
    ID                                      : 21
    Format                                  : PGS
    Muxing mode                              : zlib
    Codec ID                                : S_HDMV/PGS
    Codec ID/Info                            : Picture based subtitle format used on BDs/HD-DVDs
    Duration                                : 2 h 10 min
    Bit rate                                : 16.8 kb/s
    Count of elements                        : 1784
    Stream size                              : 15.7 MiB (0%)
    Title                                    : Greek-PGS
    Language                                : Greek
    Default                                  : No
    Forced                                  : No
    
    Text #12
    ID                                      : 22
    Format                                  : PGS
    Muxing mode                              : zlib
    Codec ID                                : S_HDMV/PGS
    Codec ID/Info                            : Picture based subtitle format used on BDs/HD-DVDs
    Duration                                : 2 h 10 min
    Bit rate                                : 15.5 kb/s
    Count of elements                        : 1760
    Stream size                              : 14.5 MiB (0%)
    Title                                    : Turkish-PGS
    Language                                : Turkish
    Default                                  : No
    Forced                                  : No
    
    Text #13
    ID                                      : 23
    Format                                  : PGS
    Muxing mode                              : zlib
    Codec ID                                : S_HDMV/PGS
    Codec ID/Info                            : Picture based subtitle format used on BDs/HD-DVDs
    Duration                                : 2 h 3 min
    Bit rate                                : 37.4 kb/s
    Count of elements                        : 3305
    Stream size                              : 33.0 MiB (0%)
    Title                                    : Japanese-PGS
    Language                                : Japanese
    Default                                  : No
    Forced                                  : No
    
    Text #14
    ID                                      : 24
    Format                                  : PGS
    Muxing mode                              : zlib
    Codec ID                                : S_HDMV/PGS
    Codec ID/Info                            : Picture based subtitle format used on BDs/HD-DVDs
    Duration                                : 2 h 3 min
    Bit rate                                : 76.6 kb/s
    Count of elements                        : 4429
    Stream size                              : 67.5 MiB (0%)
    Title                                    : English-COMMENTARY-PGS
    Language                                : English
    Default                                  : No
    Forced                                  : No
    
    Text #15
    ID                                      : 25
    Format                                  : PGS
    Muxing mode                              : zlib
    Codec ID                                : S_HDMV/PGS
    Codec ID/Info                            : Picture based subtitle format used on BDs/HD-DVDs
    Duration                                : 2 h 11 min
    Bit rate                                : 54.8 kb/s
    Count of elements                        : 4149
    Stream size                              : 51.4 MiB (0%)
    Title                                    : French-COMMENTARY-PGS
    Language                                : French
    Default                                  : No
    Forced                                  : No
    
    Text #16
    ID                                      : 26
    Format                                  : PGS
    Muxing mode                              : zlib
    Codec ID                                : S_HDMV/PGS
    Codec ID/Info                            : Picture based subtitle format used on BDs/HD-DVDs
    Duration                                : 2 h 11 min
    Bit rate                                : 61.3 kb/s
    Count of elements                        : 4149
    Stream size                              : 57.5 MiB (0%)
    Title                                    : German-COMMENTARY-PGS
    Language                                : German
    Default                                  : No
    Forced                                  : No
    
    Text #17
    ID                                      : 27
    Format                                  : PGS
    Muxing mode                              : zlib
    Codec ID                                : S_HDMV/PGS
    Codec ID/Info                            : Picture based subtitle format used on BDs/HD-DVDs
    Duration                                : 2 h 11 min
    Bit rate                                : 53.8 kb/s
    Count of elements                        : 4149
    Stream size                              : 50.6 MiB (0%)
    Title                                    : Italian-COMMENTARY-PGS
    Language                                : Italian
    Default                                  : No
    Forced                                  : No
    
    Text #18
    ID                                      : 28
    Format                                  : PGS
    Muxing mode                              : zlib
    Codec ID                                : S_HDMV/PGS
    Codec ID/Info                            : Picture based subtitle format used on BDs/HD-DVDs
    Duration                                : 2 h 3 min
    Bit rate                                : 37.0 kb/s
    Count of elements                        : 3256
    Stream size                              : 32.6 MiB (0%)
    Title                                    : Japanese-FORCED-PGS
    Language                                : Japanese
    Default                                  : No
    Forced                                  : No
    
    Text #19
    ID                                      : 29
    Format                                  : PGS
    Muxing mode                              : zlib
    Codec ID                                : S_HDMV/PGS
    Codec ID/Info                            : Picture based subtitle format used on BDs/HD-DVDs
    Duration                                : 2 h 11 min
    Bit rate                                : 1 234 b/s
    Count of elements                        : 144
    Stream size                              : 1.16 MiB (0%)
    Title                                    : Turkish-FORCED-PGS
    Language                                : Turkish
    Default                                  : No
    Forced                                  : No
    
    Menu
    00:00:00.000                            : en:Chapter 1
    00:05:05.054                            : en:Chapter 2
    00:10:26.792                            : en:Chapter 3
    00:19:48.854                            : en:Chapter 4
    00:27:46.456                            : en:Chapter 5
    00:32:40.458                            : en:Chapter 6
    00:38:04.490                            : en:Chapter 7
    00:44:02.097                            : en:Chapter 8
    00:51:08.648                            : en:Chapter 9
    00:58:17.869                            : en:Chapter 10
    01:02:08.558                            : en:Chapter 11
    01:08:57.967                            : en:Chapter 12
    01:13:36.537                            : en:Chapter 13
    01:16:59.072                            : en:Chapter 14
    01:26:57.003                            : en:Chapter 15
    01:36:30.993                            : en:Chapter 16
    01:43:37.794                            : en:Chapter 17
    01:49:51.459                            : en:Chapter 18
    01:53:44.734                            : en:Chapter 19
    02:01:50.094                            : en:Chapter 20
    Download:
     
  2. Loading...


Share This Page