Google Drive Snowpiercer.2013.LIMITED.1080p.BluRay.X264-AMIABLE

Discussion in 'BDRip | 720p/1080p' started by DDLbase, Apr 28, 2021.

  1. DDLbase

    DDLbase Administrator Staff Member

    [​IMG]

    Rating: 7.1/10 based on 329,329 user ratings

    Genres: Action, Drama, Sci-Fi

    In a future where a failed climate-change experiment has killed all life except for the lucky few who boarded the Snowpiercer, a train that travels around the globe, a new class system emerges.

    [​IMG]
    Code:
    General
    Complete name               : Snowpiercer.2013.LIMITED.1080p.BluRay.X264-AMIABLE.mkv
    Format                      : Matroska
    Format version              : Version 2
    File size                   : 7.65 GiB
    Duration                    : 2 h 6 min
    Overall bit rate            : 8 686 kb/s
    Writing application         : mkvmerge v6.6.0 ('The Edge Of The In Between') built on Dec 1 2013 17:55:00
    Writing library             : libebml v1.3.0 + libmatroska v1.4.1
    
    Video
    ID                          : 1
    Format                      : AVC
    Format/Info                 : Advanced Video Codec
    Format profile              : [email protected]
    Format settings             : CABAC / 4 Ref Frames
    Format settings, CABAC      : Yes
    Format settings, Reference  : 4 frames
    Codec ID                    : V_MPEG4/ISO/AVC
    Duration                    : 2 h 6 min
    Bit rate                    : 8 045 kb/s
    Width                       : 1 920 pixels
    Height                      : 1 040 pixels
    Display aspect ratio        : 1.85:1
    Frame rate mode             : Constant
    Frame rate                  : 23.976 (24000/1001) FPS
    Color space                 : YUV
    Chroma subsampling          : 4:2:0
    Bit depth                   : 8 bits
    Scan type                   : Progressive
    Bits/(Pixel*Frame)          : 0.168
    Stream size                 : 6.93 GiB (91%)
    Writing library             : x264 core 142 r2431 ac76440
    Encoding settings           : cabac=1 / ref=4 / deblock=1:-3:-3 / analyse=0x3:0x113 / me=umh / subme=8 / psy=1 / psy_rd=1.00:0.00 / mixed_ref=1 / me_range=16 / chroma_me=1 / trellis=1 / 8x8dct=1 / cqm=0 / deadzone=21,11 / fast_pskip=1 / chroma_qp_offset=-2 / threads=12 / lookahead_threads=2 / sliced_threads=0 / nr=0 / decimate=1 / interlaced=0 / bluray_compat=0 / constrained_intra=0 / bframes=3 / b_pyramid=2 / b_adapt=2 / b_bias=0 / direct=3 / weightb=1 / open_gop=0 / weightp=2 / keyint=240 / keyint_min=24 / scenecut=40 / intra_refresh=0 / rc_lookahead=50 / rc=2pass / mbtree=1 / bitrate=8045 / ratetol=1.0 / qcomp=0.60 / qpmin=0 / qpmax=69 / qpstep=4 / cplxblur=20.0 / qblur=0.5 / ip_ratio=1.40 / aq=1:1.00
    Language                    : English
    Default                     : Yes
    Forced                      : No
    
    Audio
    ID                          : 2
    Format                      : AC-3
    Format/Info                 : Audio Coding 3
    Commercial name             : Dolby Digital
    Codec ID                    : A_AC3
    Duration                    : 2 h 6 min
    Bit rate mode               : Constant
    Bit rate                    : 640 kb/s
    Channel(s)                  : 6 channels
    Channel layout              : L R C LFE Ls Rs
    Sampling rate               : 48.0 kHz
    Frame rate                  : 31.250 FPS (1536 SPF)
    Compression mode            : Lossy
    Stream size                 : 577 MiB (7%)
    Language                    : English
    Service kind                : Complete Main
    Default                     : Yes
    Forced                      : No
    
    Text #1
    ID                          : 3
    Format                      : UTF-8
    Codec ID                    : S_TEXT/UTF8
    Codec ID/Info               : UTF-8 Plain Text
    Title                       : Forced
    Language                    : English
    Default                     : Yes
    Forced                      : Yes
    
    Text #2
    ID                          : 4
    Format                      : UTF-8
    Codec ID                    : S_TEXT/UTF8
    Codec ID/Info               : UTF-8 Plain Text
    Language                    : English
    Default                     : No
    Forced                      : No
    
    Menu
    00:00:00.000                : en:00:00:00.000
    00:08:36.182                : en:00:08:36.182
    00:15:09.075                : en:00:15:09.075
    00:21:27.495                : en:00:21:27.495
    00:29:15.837                : en:00:29:15.837
    00:39:10.473                : en:00:39:10.473
    00:47:46.238                : en:00:47:46.238
    00:56:44.526                : en:00:56:44.526
    01:03:30.765                : en:01:03:30.765
    01:15:18.514                : en:01:15:18.514
    01:23:47.689                : en:01:23:47.689
    01:27:31.663                : en:01:27:31.663
    01:36:37.667                : en:01:36:37.667
    01:42:44.909                : en:01:42:44.909
    01:51:54.041                : en:01:51:54.041
    02:00:29.055                : en:02:00:29.055
    Download - Mirror 1:
    Download - Mirror 2:
     
  2. Loading...


Share This Page