Google Drive Sonic.the.Hedgehog.2.2022.1080p.WEB-DL.H264.AAC-EVO

Discussion in 'Web-DL / Webrip | 1080p' started by DDLbase, May 3, 2022.

  1. DDLbase

    DDLbase Administrator Staff Member

    [​IMG]

    Rating: 6.9/10 based on 20.357 user ratings

    Genres: Action, Adventure, Animation

    When the manic Dr Robotnik returns to Earth with a new ally, Knuckles the Echidna, Sonic and his new friend Tails is all that stands in their way.

    [​IMG]
    Code:
    General
    Unique ID                   : 190708481799213744804175290990574142018 (0x8F791E195E038E0843B12FFC2D8F8242)
    Complete name               : Sonic.the.Hedgehog.2.2022.1080p.WEB-DL.H264.AAC-EVO.mkv
    Format                      : Matroska
    Format version              : Version 4
    File size                   : 4.74 GiB
    Duration                    : 2 h 1 min
    Overall bit rate            : 5 595 kb/s
    Movie name                  : EVO
    Encoded date                : UTC 2022-05-03 15:59:08
    Writing application         : mkvmerge v49.0.0 ('Sick Of Losing Soulmates') 64-bit
    Writing library             : libebml v1.4.0 + libmatroska v1.6.1
    
    Video
    ID                          : 1
    Format                      : AVC
    Format/Info                 : Advanced Video Codec
    Format profile              : [email protected]
    Format settings             : CABAC / 4 Ref Frames
    Format settings, CABAC      : Yes
    Format settings, Reference  : 4 frames
    Codec ID                    : V_MPEG4/ISO/AVC
    Duration                    : 2 h 1 min
    Bit rate                    : 5 272 kb/s
    Width                       : 1 920 pixels
    Height                      : 1 080 pixels
    Display aspect ratio        : 16:9
    Frame rate mode             : Constant
    Frame rate                  : 29.970 (30000/1001) FPS
    Color space                 : YUV
    Chroma subsampling          : 4:2:0
    Bit depth                   : 8 bits
    Scan type                   : Progressive
    Bits/(Pixel*Frame)          : 0.085
    Stream size                 : 4.47 GiB (94%)
    Default                     : Yes
    Forced                      : No
    
    Audio
    ID                          : 2
    Format                      : AAC LC
    Format/Info                 : Advanced Audio Codec Low Complexity
    Codec ID                    : A_AAC-2
    Duration                    : 2 h 1 min
    Bit rate                    : 320 kb/s
    Channel(s)                  : 2 channels
    Channel layout              : L R
    Sampling rate               : 48.0 kHz
    Frame rate                  : 46.875 FPS (1024 SPF)
    Compression mode            : Lossy
    Delay relative to video     : 1 ms
    Stream size                 : 278 MiB (6%)
    Language                    : English
    Default                     : Yes
    Forced                      : No
    Download - Mirror 1:
    Download - Mirror 2:
     
  2. Loading...


Share This Page