Google Drive Starlet.2012.LIMITED.1080p.BluRay.x264-GECKOS

Discussion in 'BDRip | 720p/1080p' started by DDLbase, Apr 12, 2021.

  1. DDLbase

    DDLbase Administrator Staff Member

    [​IMG]

    Rating: 6.9/10 based on 7,029 user ratings

    Genre: Drama

    An unlikely friendship forms between twenty-one-year-old Jane and the elderly Sadie after Jane discovers a hidden stash of money inside an object at Sadie’s yard sale.

    [​IMG]
    Code:
    General
    Complete name               : Starlet.2012.LIMITED.1080p.BluRay.x264-GECKOS.mkv
    Format                      : Matroska
    Format version              : Version 2
    File size                   : 7.65 GiB
    Duration                    : 1 h 43 min
    Overall bit rate            : 10.6 Mb/s
    Writing application         : mkvmerge v4.1.1 ('Bouncin' Back') built on Jul  3 2010 22:54:08
    Writing library             : libebml v1.0.0 + libmatroska v1.0
    
    Video
    ID                          : 1
    Format                      : AVC
    Format/Info                 : Advanced Video Codec
    Format profile              : [email protected]
    Format settings             : CABAC / 5 Ref Frames
    Format settings, CABAC      : Yes
    Format settings, Reference  : 5 frames
    Codec ID                    : V_MPEG4/ISO/AVC
    Duration                    : 1 h 43 min
    Bit rate                    : 9 115 kb/s
    Width                       : 1 920 pixels
    Height                      : 800 pixels
    Display aspect ratio        : 2.40:1
    Frame rate mode             : Constant
    Frame rate                  : 23.976 (24000/1001) FPS
    Color space                 : YUV
    Chroma subsampling          : 4:2:0
    Bit depth                   : 8 bits
    Scan type                   : Progressive
    Bits/(Pixel*Frame)          : 0.248
    Stream size                 : 6.41 GiB (84%)
    Writing library             : x264 core 130 r2273 b3065e6
    Encoding settings           : cabac=1 / ref=5 / deblock=1:0:0 / analyse=0x3:0x133 / me=umh / subme=7 / psy=1 / psy_rd=1.00:0.00 / mixed_ref=1 / me_range=16 / chroma_me=1 / trellis=1 / 8x8dct=1 / cqm=0 / deadzone=21,11 / fast_pskip=0 / chroma_qp_offset=-2 / threads=18 / lookahead_threads=3 / sliced_threads=0 / nr=0 / decimate=1 / interlaced=0 / bluray_compat=0 / constrained_intra=0 / bframes=3 / b_pyramid=2 / b_adapt=1 / b_bias=0 / direct=1 / weightb=1 / open_gop=0 / weightp=2 / keyint=250 / keyint_min=23 / scenecut=40 / intra_refresh=0 / rc_lookahead=40 / rc=2pass / mbtree=1 / bitrate=9115 / ratetol=1.0 / qcomp=0.60 / qpmin=0 / qpmax=69 / qpstep=4 / cplxblur=20.0 / qblur=0.5 / ip_ratio=1.40 / aq=1:1.00
    Language                    : English
    Default                     : Yes
    Forced                      : No
    
    Audio
    ID                          : 2
    Format                      : DTS
    Format/Info                 : Digital Theater Systems
    Codec ID                    : A_DTS
    Duration                    : 1 h 43 min
    Bit rate mode               : Constant
    Bit rate                    : 1 509 kb/s
    Channel(s)                  : 6 channels
    Channel layout              : C L R Ls Rs LFE
    Sampling rate               : 48.0 kHz
    Frame rate                  : 93.750 FPS (512 SPF)
    Bit depth                   : 24 bits
    Compression mode            : Lossy
    Stream size                 : 1.09 GiB (14%)
    Language                    : English
    Default                     : Yes
    Forced                      : No
    
    Text
    ID                          : 3
    Format                      : UTF-8
    Codec ID                    : S_TEXT/UTF8
    Codec ID/Info               : UTF-8 Plain Text
    Language                    : English
    Default                     : No
    Forced                      : No
    
    Menu
    00:00:00.000                : en:00:00:00.000
    00:05:30.664                : en:00:05:30.664
    00:12:33.670                : en:00:12:33.670
    00:18:04.750                : en:00:18:04.750
    00:24:13.911                : en:00:24:13.911
    00:29:24.846                : en:00:29:24.846
    00:37:38.256                : en:00:37:38.256
    00:45:36.901                : en:00:45:36.901
    00:53:02.888                : en:00:53:02.888
    01:00:00.680                : en:01:00:00.680
    01:07:00.183                : en:01:07:00.183
    01:12:35.434                : en:01:12:35.434
    01:17:42.324                : en:01:17:42.324
    01:25:15.736                : en:01:25:15.736
    01:33:50.041                : en:01:33:50.041
    01:40:07.084                : en:01:40:07.084
    Download - Mirror 1:
    Download - Mirror 2:
     
  2. Loading...


Share This Page