Google Drive Streamer.2019.1080p.WEB-DL.H264.AC3-EVO

Discussion in 'Web-DL / Webrip | 1080p' started by DDLbase, Dec 7, 2019.

  1. DDLbase

    DDLbase Administrator Staff Member

    [​IMG]
    [​IMG]
    Code:
    General
    Unique ID                   : 319629901544576472427212253096847753445 (0xF0767AD77D92B16958D20B9852E240E5)
    Complete name               : Streamer.2019.1080p.WEB-DL.H264.AC3-EVO.mkv
    Format                      : Matroska
    Format version              : Version 4 / Version 2
    File size                   : 2.83 GiB
    Duration                    : 1 h 18 min
    Overall bit rate            : 5 147 kb/s
    Encoded date                : UTC 2019-11-04 01:19:12
    Writing application         : mkvmerge v35.0.0 ('All The Love In The World') 64-bit
    Writing library             : libebml v1.3.9 + libmatroska v1.5.2
    
    Video
    ID                          : 2
    Format                      : AVC
    Format/Info                 : Advanced Video Codec
    Format profile              : [email protected]
    Format settings, CABAC      : Yes
    Format settings, ReFrames   : 4 frames
    Codec ID                    : V_MPEG4/ISO/AVC
    Duration                    : 1 h 18 min
    Bit rate                    : 4 954 kb/s
    Width                       : 1 920 pixels
    Height                      : 1 080 pixels
    Display aspect ratio        : 16:9
    Frame rate mode             : Constant
    Frame rate                  : 23.976 FPS
    Color space                 : YUV
    Chroma subsampling          : 4:2:0
    Bit depth                   : 8 bits
    Scan type                   : Progressive
    Bits/(Pixel*Frame)          : 0.100
    Stream size                 : 2.73 GiB (96%)
    Language                    : English
    Default                     : Yes
    Forced                      : No
    Color range                 : Limited
    Color primaries             : BT.709
    Transfer characteristics    : BT.709
    Matrix coefficients         : BT.709
    
    Audio
    ID                          : 1
    Format                      : AC-3
    Format/Info                 : Audio Coding 3
    Format settings, Endianness : Big
    Codec ID                    : A_AC3
    Duration                    : 1 h 18 min
    Bit rate mode               : Constant
    Bit rate                    : 192 kb/s
    Channel(s)                  : 2 channels
    Channel positions           : Front: L R
    Sampling rate               : 48.0 kHz
    Frame rate                  : 31.250 FPS (1536 spf)
    Bit depth                   : 16 bits
    Compression mode            : Lossy
    Stream size                 : 108 MiB (4%)
    Service kind                : Complete Main
    Default                     : Yes
    Forced                      : No
    
    Menu
    00:00:00.000                : en:1
    00:15:16.000                : en:2
    00:30:02.000                : en:3
    00:45:01.000                : en:4
    00:59:03.000                : en:5
    01:17:31.000                : en:6
    Download:
     
  2. Loading...


Share This Page